<?xml version="1.0" standalone="no"?>
<!DOCTYPE svg PUBLIC "-//W3C//DTD SVG 1.1//EN" "http://www.w3.org/Graphics/SVG/1.1/DTD/svg11.dtd" >
<svg xmlns="http://www.w3.org/2000/svg" xmlns:xlink="http://www.w3.org/1999/xlink" version="1.1">
<metadata>
Created by FontForge 20201107 at Mon Jun 19 21:47:41 2017
 By Jimmy Wärting
Copyright (c) 1981 Linotype AG and/or its subsidiaries.
</metadata>
<defs>
<font id="Cochin-Bold" horiz-adv-x="704" >
  <font-face 
    font-family="Cochin"
    font-weight="700"
    font-stretch="normal"
    units-per-em="1000"
    panose-1="2 0 8 3 2 0 0 2 0 3"
    ascent="800"
    descent="-200"
    x-height="378"
    cap-height="656"
    bbox="-494 -250 1898 1000"
    underline-thickness="50"
    underline-position="-125"
    unicode-range="U+0008-FE48"
  />
<missing-glyph horiz-adv-x="593" 
 />
    <glyph glyph-name="fi" unicode="fi" horiz-adv-x="593" 
d="M189 100q0 -21 2.5 -35.5t11.5 -23.5t26 -13.5t46 -5.5v-26q-34 2 -67 3t-67 1t-67 -1t-67 -3v26q23 1 36.5 5.5t21 13.5t10 23.5t2.5 35.5v244h-68l11 30h57v78q0 53 15.5 100t45.5 82.5t75 56.5t104 21q29 0 56 -8.5t49 -25t36.5 -40.5t16.5 -54q-63 -12 -118 -36
q0 38 -5 64t-14.5 41.5t-23 22t-31.5 6.5q-42 0 -68 -46t-26 -132v-130h103v-30h-103v-244zM306 22q22 1 35.5 5.5t20.5 13.5t9 23.5t2 35.5v175q0 41 -19.5 56t-50.5 21v22q20 0 47 0.5t53.5 2.5t49 5t32.5 9v-291q0 -21 2.5 -35.5t10 -23.5t22 -13.5t38.5 -5.5v-26
q-32 2 -63 3t-63 1t-63 -1t-63 -3v26z" />
    <glyph glyph-name="fl" unicode="fl" horiz-adv-x="611" 
d="M506 712v-637q0 -36 22 -47.5t51 -11.5v-20q-13 1 -26 1.5t-28 1t-34 1t-45 0.5q-49 0 -78 -1t-52 -3v20q28 0 50 11.5t22 47.5v490l-32 -11q-1 68 -18.5 98t-56.5 30q-41 0 -66.5 -47.5t-25.5 -132.5v-128h131v-30h-131v-244q0 -22 3.5 -37.5t12.5 -25.5t25.5 -14.5
t43.5 -6.5v-20q-35 2 -69 3t-68 1q-35 0 -69 -1t-69 -3v20q24 2 39.5 6.5t24 14.5t11.5 25.5t3 37.5v244h-65l11 30h54v66q0 50 14 99t42.5 87.5t70.5 62t98 23.5q38 0 69.5 -11t60.5 -29z" />
    <glyph glyph-name=".notdef" horiz-adv-x="593" 
 />
    <glyph glyph-name=".null" horiz-adv-x="0" 
 />
    <glyph glyph-name=".null" horiz-adv-x="0" 
 />
    <glyph glyph-name=".null" horiz-adv-x="0" 
 />
    <glyph glyph-name="nonmarkingreturn" unicode="&#x9;" horiz-adv-x="500" 
 />
    <glyph glyph-name="nonmarkingreturn" unicode="&#xd;" horiz-adv-x="500" 
 />
    <glyph glyph-name="nonmarkingreturn" unicode="&#xa;" horiz-adv-x="500" 
 />
    <glyph glyph-name="space" unicode=" " horiz-adv-x="260" 
 />
    <glyph glyph-name="space" unicode="&#xa0;" horiz-adv-x="260" 
 />
    <glyph glyph-name="exclam" unicode="!" horiz-adv-x="278" 
d="M142 154q32 0 54.5 -22t22.5 -55t-22.5 -55t-54.5 -22t-54.5 22t-22.5 55t22.5 55t54.5 22zM127 192q-6 31 -10.5 62.5t-7.5 65t-4 71t-1 81.5q0 41 -1 68.5t-5.5 45.5t-13 29.5t-24.5 21.5v19l163 8q3 -14 4 -27.5t1 -27.5q0 -38 -7 -75.5t-17 -74.5t-20.5 -74
t-18.5 -74q-6 -29 -7.5 -59t-3.5 -60h-27z" />
    <glyph glyph-name="quotedbl" unicode="&#x22;" horiz-adv-x="333" 
d="M108 385q0 -3 -1 -8t-4 -10.5t-8 -9t-13 -3.5t-13 3.5t-8 9t-4 10.5t-1 8l-18 204q-1 9 -1 23t3.5 27t13 22t28.5 9t28.5 -9t13 -22t3.5 -27t-1 -23zM273 385q0 -3 -1 -8t-4 -10.5t-8 -9t-13 -3.5t-13 3.5t-8 9t-4 10.5t-1 8l-18 204q-1 9 -1 23t3.5 27t13 22t28.5 9
t28.5 -9t13 -22t3.5 -27t-1 -23z" />
    <glyph glyph-name="numbersign" unicode="#" horiz-adv-x="519" 
d="M450 199h-96l-28 -199h-69l29 199h-114l-29 -199h-68l29 199h-96v62h104l18 128h-94v62h104l27 199h70l-29 -199h114l28 199h69l-29 -199h86v-62h-94l-18 -128h86v-62zM200 389l-19 -128h113l19 128h-113z" />
    <glyph glyph-name="dollar" unicode="$" horiz-adv-x="519" 
d="M35 205q9 -31 25.5 -61.5t40 -55t53 -39.5t65.5 -15v259q-33 17 -66.5 34.5t-60.5 40.5t-44 54t-17 74q0 42 15.5 72.5t41 50.5t60 29.5t71.5 9.5v85h38v-85q25 0 44.5 -4.5t35.5 -9.5t30 -9.5t29 -4.5h12t12 2l10 -74t16 -72l-29 -3q-8 27 -23 51.5t-35.5 44t-46.5 32
t-55 13.5v-218q39 -18 75.5 -37.5t64 -45t44.5 -60t17 -82.5q0 -43 -17 -76.5t-45 -56.5t-64 -35.5t-75 -12.5v-99h-38v99q-48 0 -80 10t-46 10q-10 0 -21 -4.5t-20 -9.5q-8 48 -19 95.5t-24 94.5zM219 624q-34 -3 -59 -25.5t-25 -66.5q0 -20 8 -37t20 -30.5t27 -23.5
t29 -17v200zM257 40q41 10 64 36.5t23 71.5q0 49 -22 77.5t-65 51.5v-237z" />
    <glyph glyph-name="percent" unicode="%" horiz-adv-x="889" 
d="M194 636q-34 0 -47.5 -46.5t-13.5 -123.5t13.5 -123.5t47.5 -46.5q35 0 48 46.5t13 123.5t-13 123.5t-48 46.5zM578 668h56l-377 -686h-56zM641 386q42 0 72.5 -17t50.5 -45.5t30 -65t10 -74.5t-10 -74.5t-30 -65t-50.5 -45.5t-72.5 -17t-72.5 17t-50.5 45.5t-30 65
t-10 74.5t10 74.5t30 65t50.5 45.5t72.5 17zM641 354q-34 0 -47.5 -46.5t-13.5 -123.5t13.5 -123.5t47.5 -46.5q35 0 48 46.5t13 123.5t-13 123.5t-48 46.5zM194 668q42 0 72.5 -17t50.5 -45.5t30 -65t10 -74.5t-10 -74.5t-30 -65t-50.5 -45.5t-72.5 -17t-72.5 17
t-50.5 45.5t-30 65t-10 74.5t10 74.5t30 65t50.5 45.5t72.5 17z" />
    <glyph glyph-name="ampersand" unicode="&#x26;" horiz-adv-x="759" 
d="M514 447h231v-20q-30 -4 -49 -9.5t-33 -17.5t-26 -32t-29 -53l-92 -178q33 -54 78.5 -84.5t111.5 -32.5v-24q-36 2 -71.5 3t-71.5 1q-31 0 -61.5 -1t-61.5 -3l-15 45q-37 -28 -87 -44.5t-95 -16.5q-42 0 -78.5 10.5t-63.5 33t-42.5 58t-15.5 84.5q0 46 17.5 80t46.5 59
t66 41.5t76 26.5q-23 14 -44.5 28.5t-38.5 31.5t-27 39t-10 52q0 28 15 51.5t40.5 40.5t59 26.5t71.5 9.5q41 0 74 -10t56.5 -28t36 -42t12.5 -51q0 -33 -12.5 -57t-33.5 -41.5t-47.5 -29t-54.5 -19.5q29 -17 51.5 -41.5t41 -52.5t33.5 -57t27 -55q8 15 21 40.5t25 54t21 55
t9 42.5q0 35 -14 48t-47 19v20zM171 210q0 -36 10.5 -67t30 -53.5t47.5 -35t62 -12.5q25 0 48.5 7t42.5 24q-14 30 -30.5 73t-34.5 84t-36.5 75t-38.5 46q-54 -23 -77.5 -55.5t-23.5 -85.5zM239 518q0 -40 25.5 -72.5t59.5 -50.5q32 20 51 47t19 74q0 18 -3.5 35t-12.5 30.5
t-24 22t-38 8.5q-41 0 -59 -28.5t-18 -65.5z" />
    <glyph glyph-name="quotesingle" unicode="'" horiz-adv-x="222" 
d="M133 385q0 -3 -1 -8t-4 -10.5t-8 -9t-13 -3.5t-13 3.5t-8 9t-4 10.5t-1 8l-18 204q-1 9 -1 23t3.5 27t13 22t28.5 9t28.5 -9t13 -22t3.5 -27t-1 -23z" />
    <glyph glyph-name="parenleft" unicode="(" horiz-adv-x="389" 
d="M363 668q-51 -51 -85.5 -103.5t-55.5 -106t-30 -107.5t-9 -108q0 -130 43.5 -236t138.5 -196l-17 -17q-59 40 -112 86t-92.5 100t-63 118t-23.5 140q0 81 23.5 144t62.5 115.5t90.5 98.5t107.5 92z" />
    <glyph glyph-name="parenright" unicode=")" horiz-adv-x="389" 
d="M48 688q56 -46 107.5 -92t90.5 -98.5t62.5 -115.5t23.5 -144q0 -76 -23.5 -140t-63 -118t-92.5 -100t-112 -86l-17 17q95 90 138.5 196t43.5 236q0 54 -9 108t-30 107.5t-55.5 106t-85.5 103.5z" />
    <glyph glyph-name="asterisk" unicode="*" horiz-adv-x="444" 
d="M252 438q11 -7 23 -15.5t23 -18.5t18 -21.5t7 -26.5t-12.5 -25.5t-26.5 -10.5q-29 0 -38 18t-9 43v17v33zM258 533q5 12 12 26.5t16 27t21.5 21t28.5 8.5q15 0 27 -11.5t12 -27.5q0 -17 -12 -27.5t-29 -16.5t-35 -9t-30 -6zM276 483q20 8 40 13.5t41 5.5q18 0 29 -13.5
t11 -30.5q0 -18 -12 -28t-29 -10q-9 0 -20.5 5t-23.5 12.5t-22 16t-16 14.5zM163 468q-6 -6 -16 -14.5t-21.5 -16t-23 -12.5t-20.5 -5q-17 0 -29 10t-12 28q0 17 11 30.5t29 13.5q21 0 41 -5.5t39 -13.5zM169 518q-12 3 -30 6t-35 9t-29 16.5t-12 27.5q0 16 12 27.5t27 11.5
q16 0 28.5 -8.5t21.5 -21t15.5 -27t11.5 -26.5zM201 431v-33v-17q0 -25 -9 -43t-38 -18q-14 0 -26.5 10.5t-12.5 25.5t7 26.5t17.5 21.5t23 18.5t22.5 15.5zM208 548q-4 4 -9 14.5t-9.5 22.5t-8 22t-3.5 14q0 22 7.5 35.5t33.5 13.5t33.5 -13.5t7.5 -35.5q0 -4 -3.5 -14
t-8 -22t-9.5 -22.5t-9 -14.5h-22z" />
    <glyph glyph-name="plus" unicode="+" horiz-adv-x="600" 
d="M247 374h76v-149h149v-76h-149v-149h-76v149h-149v76h149v149z" />
    <glyph glyph-name="comma" unicode="," horiz-adv-x="260" 
d="M-2 -134q12 7 26 18.5t26 26.5t19.5 32.5t7.5 36.5q0 16 -3.5 28t-8 23.5t-8 25t-3.5 32.5q0 26 15 45.5t43 19.5q43 0 59.5 -27t16.5 -65t-16.5 -69.5t-42.5 -58t-57 -48t-60 -40.5z" />
    <glyph glyph-name="hyphen" unicode="-" horiz-adv-x="333" 
d="M31 238q8 1 23.5 3.5t29.5 2.5q8 0 20.5 -1t27 -2.5t30 -2.5t28.5 -1q26 0 49.5 4.5t46.5 17.5l-16 -121q-34 -8 -65 -8q-17 0 -42.5 3.5t-50.5 3.5q-49 0 -96 -16z" />
    <glyph glyph-name="hyphen" unicode="&#xad;" horiz-adv-x="333" 
d="M31 238q8 1 23.5 3.5t29.5 2.5q8 0 20.5 -1t27 -2.5t30 -2.5t28.5 -1q26 0 49.5 4.5t46.5 17.5l-16 -121q-34 -8 -65 -8q-17 0 -42.5 3.5t-50.5 3.5q-49 0 -96 -16z" />
    <glyph glyph-name="period" unicode="." horiz-adv-x="260" 
d="M121 154q32 0 54.5 -22t22.5 -55t-22.5 -55t-54.5 -22t-54.5 22t-22.5 55t22.5 55t54.5 22z" />
    <glyph glyph-name="slash" unicode="/" horiz-adv-x="278" 
d="M224 670h77l-254 -690h-77z" />
    <glyph glyph-name="zero" unicode="0" horiz-adv-x="519" 
d="M242 628q-28 0 -46.5 -23t-29.5 -63.5t-15.5 -96t-4.5 -120.5t4.5 -120.5t15.5 -96t29.5 -63.5t46.5 -23t46.5 23t29.5 63.5t15.5 96t4.5 120.5t-4.5 120.5t-15.5 96t-29.5 63.5t-46.5 23zM242 668q58 0 100 -28.5t69.5 -76.5t41 -110t13.5 -128t-13.5 -128t-41 -110
t-69.5 -76.5t-100 -28.5t-100 28.5t-69.5 76.5t-41 110t-13.5 128t13.5 128t41 110t69.5 76.5t100 28.5z" />
    <glyph glyph-name="one" unicode="1" horiz-adv-x="519" 
d="M69 16q36 0 59.5 3t36.5 16.5t18 41.5t5 77v341q0 33 -4.5 53.5t-16.5 32.5t-33 16.5t-55 4.5v20q115 12 221 54v-522q0 -49 5 -77t17 -41.5t33.5 -16.5t54.5 -3v-20q-43 2 -85.5 3t-84.5 1q-43 0 -85.5 -1t-85.5 -3v20z" />
    <glyph glyph-name="two" unicode="2" horiz-adv-x="519" 
d="M6 0l-6 23q48 46 102 97t99 108t75 121t30 137q0 71 -29 109.5t-74 38.5q-21 0 -36.5 -7.5t-25.5 -19.5t-15.5 -26t-6.5 -28q16 -13 28.5 -37t12.5 -43q0 -27 -17 -45.5t-52 -18.5q-30 0 -50.5 20.5t-20.5 62.5q0 43 16 76t43 55t63.5 33.5t77.5 11.5q44 0 83 -10.5
t68 -33t46 -57.5t17 -85q0 -64 -29.5 -114.5t-73.5 -94.5t-94.5 -84t-91.5 -83h150q37 0 61 3.5t42.5 12t35 23.5t37.5 38l14 -14q-23 -42 -44 -84t-39 -85h-396z" />
    <glyph glyph-name="three" unicode="3" horiz-adv-x="519" 
d="M235 386l2 -2q9 2 18 3t17 1q97 0 141.5 -50t44.5 -137q0 -55 -21 -96.5t-57 -68.5t-82.5 -40.5t-97.5 -13.5q-39 0 -73 10t-60 28.5t-41 45t-15 59.5q0 30 21 48t47 18q29 0 48 -15t19 -38q0 -20 -4 -31t-9 -19q3 -11 8 -23.5t15.5 -23.5t27 -18t40.5 -7q53 0 82.5 45.5
t29.5 122.5q0 69 -25 113.5t-73 44.5q-21 0 -40 -11.5t-35 -28.5l-28 19l184 233h-138q-26 0 -42 -4t-27.5 -14t-21.5 -27.5t-23 -45.5h-21l42 197q43 -2 86 -3t86 -1q48 0 95 1t95 3l4 -20z" />
    <glyph glyph-name="four" unicode="4" horiz-adv-x="519" 
d="M456 694v-20q-40 -40 -85.5 -89t-93 -101.5l-95 -105t-92.5 -98.5h236v192l112 112v-584h-112v182h-330l-10 31q72 73 139.5 146t123.5 138t96.5 116.5t59.5 80.5h51z" />
    <glyph glyph-name="five" unicode="5" horiz-adv-x="519" 
d="M46 267l107 383h81q17 -22 37.5 -29t48.5 -7q17 0 37 4.5t39.5 12t38 17.5t31.5 20l14 -21q-55 -50 -115.5 -76.5t-132.5 -26.5q-18 0 -32 3.5t-28 8.5l-59 -196q33 20 64 30t70 10q48 0 87.5 -15.5t67 -43t43 -65.5t15.5 -82q0 -103 -68.5 -157.5t-189.5 -54.5
q-102 0 -150 37.5t-48 97.5q0 27 17.5 48.5t45.5 21.5q65 0 65 -68q0 -17 -3.5 -27t-5.5 -23q14 -18 34.5 -32.5t49.5 -14.5q26 0 49 9t40 29t26.5 53t9.5 82q0 68 -34.5 110.5t-91.5 42.5q-21 0 -41.5 -7.5t-38.5 -20.5t-32 -30t-21 -37z" />
    <glyph glyph-name="six" unicode="6" horiz-adv-x="519" 
d="M274 382q45 0 82.5 -12.5t64 -37t41.5 -60.5t15 -83q0 -46 -16.5 -84.5t-45.5 -65.5t-68.5 -42t-85.5 -15q-119 0 -182 70t-63 193q0 68 20 126t53 105t76.5 82.5t91 60t96 37t91.5 12.5q21 0 34.5 -10.5t13.5 -27.5q0 -16 -12 -24t-42 -8q-14 0 -29 5.5t-25 12.5
q-51 -1 -91 -25.5t-68 -63t-44 -84.5t-19 -90q26 13 54.5 21t57.5 8zM150 190q0 -34 6.5 -64.5t19 -53.5t32 -36.5t45.5 -13.5q57 0 79.5 36.5t22.5 105.5q0 36 -6.5 67t-19 54.5t-31.5 37t-45 13.5q-58 0 -80.5 -37t-22.5 -109z" />
    <glyph glyph-name="seven" unicode="7" horiz-adv-x="519" 
d="M35 0q33 82 74 155.5t89 141t101 131t108 124.5h-209q-27 0 -46 -3.5t-34.5 -14.5t-28.5 -31t-28 -52l-24 5q14 48 27 99t22 95h254q45 0 84 2.5t81 5.5l12 -21q-117 -138 -203 -301.5t-137 -335.5h-142z" />
    <glyph glyph-name="eight" unicode="8" horiz-adv-x="519" 
d="M456 512q0 -28 -9.5 -51t-26 -41.5t-39 -31.5t-47.5 -21q32 -20 59 -39.5t46.5 -43t30.5 -53t11 -69.5q0 -52 -23.5 -86.5t-60 -55.5t-80.5 -29.5t-86 -8.5q-40 0 -80 11t-72.5 34t-52.5 57.5t-20 80.5q0 68 39.5 111t99.5 68q-19 15 -38.5 31.5t-35 35t-25 41t-9.5 49.5
q0 44 18 75.5t47 51.5t66 30t75 10q36 0 74 -8t69 -26.5t50.5 -48.5t19.5 -73zM106 192q0 -32 8.5 -62.5t26 -54.5t43.5 -38.5t60 -14.5q54 0 84.5 27.5t30.5 83.5q0 28 -20 54.5t-48.5 50t-60 44.5t-53.5 38q-32 -18 -51.5 -53.5t-19.5 -74.5zM356 514q0 24 -7.5 46
t-21.5 38.5t-34.5 26t-46.5 9.5q-38 0 -62.5 -23t-24.5 -68q0 -27 15 -48.5t37 -39.5t47 -34t45 -33q31 26 42 56t11 70z" />
    <glyph glyph-name="nine" unicode="9" horiz-adv-x="519" 
d="M337 448q0 48 -10 83t-26.5 58t-36.5 34t-41 11q-24 0 -40.5 -12.5t-26.5 -33.5t-14 -49.5t-4 -61.5q0 -81 28 -124.5t72 -43.5q26 0 45 11t31 29.5t17.5 44t5.5 54.5zM12 16q76 1 132 18.5t95 52t62.5 86.5t34.5 122q-30 -17 -62.5 -24.5t-66.5 -7.5q-44 0 -79.5 16
t-60 44t-38 65.5t-13.5 79.5q0 48 17 85t46.5 62.5t69 39t84.5 13.5q60 0 103.5 -22t72 -58.5t42.5 -85t14 -102.5q0 -113 -30.5 -192.5t-88.5 -129.5t-142.5 -73t-191.5 -23v34z" />
    <glyph glyph-name="colon" unicode=":" horiz-adv-x="260" 
d="M121 384q32 0 54.5 -22t22.5 -55t-22.5 -55t-54.5 -22t-54.5 22t-22.5 55t22.5 55t54.5 22zM121 154q32 0 54.5 -22t22.5 -55t-22.5 -55t-54.5 -22t-54.5 22t-22.5 55t22.5 55t54.5 22z" />
    <glyph glyph-name="semicolon" unicode=";" horiz-adv-x="260" 
d="M-2 -134q12 7 26 18.5t26 26.5t19.5 32.5t7.5 36.5q0 16 -3.5 28t-8 23.5t-8 25t-3.5 32.5q0 26 15 45.5t43 19.5q43 0 59.5 -27t16.5 -65t-16.5 -69.5t-42.5 -58t-57 -48t-60 -40.5zM121 384q32 0 54.5 -22t22.5 -55t-22.5 -55t-54.5 -22t-54.5 22t-22.5 55t22.5 55
t54.5 22z" />
    <glyph glyph-name="semicolon" unicode="&#x37e;" horiz-adv-x="260" 
d="M-2 -134q12 7 26 18.5t26 26.5t19.5 32.5t7.5 36.5q0 16 -3.5 28t-8 23.5t-8 25t-3.5 32.5q0 26 15 45.5t43 19.5q43 0 59.5 -27t16.5 -65t-16.5 -69.5t-42.5 -58t-57 -48t-60 -40.5zM121 384q32 0 54.5 -22t22.5 -55t-22.5 -55t-54.5 -22t-54.5 22t-22.5 55t22.5 55
t54.5 22z" />
    <glyph glyph-name="less" unicode="&#x3c;" horiz-adv-x="600" 
d="M472 55v-77l-374 166v86l374 166v-77l-299 -132z" />
    <glyph glyph-name="equal" unicode="=" horiz-adv-x="600" 
d="M472 223h-374v76h374v-76zM472 75h-374v76h374v-76z" />
    <glyph glyph-name="greater" unicode="&#x3e;" horiz-adv-x="600" 
d="M397 187l-299 132v77l374 -166v-86l-374 -166v77z" />
    <glyph glyph-name="question" unicode="?" horiz-adv-x="444" 
d="M177 184q-6 29 -6 60q0 42 16.5 78.5t36 71t36 70t16.5 75.5q0 15 -3.5 32.5t-11.5 31.5t-21 23.5t-31 9.5q-16 0 -27.5 -6.5t-19 -17t-10.5 -23t-3 -24.5q0 -40 5 -65q-28 -5 -55.5 -13t-53.5 -18q-6 18 -6 38q0 44 15 74.5t40.5 50.5t61 29t75.5 9q33 0 64 -10
t55.5 -28.5t39 -45.5t14.5 -61q0 -41 -14 -69.5t-35 -51t-45.5 -42.5t-47 -44.5t-39 -56t-20.5 -77.5h-26zM194 154q32 0 54.5 -22t22.5 -55t-22.5 -55t-54.5 -22t-54.5 22t-22.5 55t22.5 55t54.5 22z" />
    <glyph glyph-name="at" unicode="@" horiz-adv-x="800" 
d="M508 408q0 18 -9.5 32t-32.5 14q-17 0 -39.5 -13t-42 -37t-33 -58t-13.5 -76q0 -43 16.5 -62.5t39.5 -19.5q24 0 44.5 20t36 51.5t24.5 71t9 77.5zM537 490h70l-56 -226q-2 -11 -5 -23t-3 -23q0 -42 35 -42q26 0 48 19t38 48.5t24.5 64.5t8.5 67q0 42 -18.5 86.5t-54 81
t-87 60t-117.5 23.5q-52 0 -101 -19.5t-86.5 -59t-60.5 -99t-23 -138.5q0 -58 21.5 -109t59 -89t88.5 -60t111 -22q33 0 60.5 3.5t50.5 10t44.5 15t42.5 18.5l12 -38q-48 -23 -99 -41t-110 -18q-98 0 -169 32.5t-116.5 82t-67.5 107t-22 108.5q0 81 29 147t79 113.5
t116.5 73.5t140.5 26q69 0 128.5 -22.5t104 -61.5t69.5 -93t25 -117q0 -38 -12 -80t-35.5 -77t-58 -58t-79.5 -23q-18 0 -34 6.5t-28 16.5t-19.5 23t-7.5 25h-2q-9 -14 -23 -27t-30 -22.5t-33 -15.5t-32 -6q-23 0 -40.5 9.5t-29.5 24.5t-18.5 34.5t-6.5 39.5q0 49 15 95.5
t42 82.5t63.5 58t78.5 22q17 0 28 -4.5t18.5 -12t12.5 -16t10 -17.5z" />
    <glyph glyph-name="A" unicode="A" 
d="M389 318l-82 234h-2l-87 -234h171zM-24 20q28 3 46.5 11.5t31 22.5t22 32.5t19.5 42.5l196 457l-18 48q32 6 63 14.5t60 21.5l217 -589q12 -32 42 -46.5t61 -14.5v-24q-19 1 -43 2t-48 1.5t-48 0.5h-42q-42 0 -83.5 -1t-83.5 -3v24q52 4 77 17t25 39q0 9 -3.5 23t-9 28.5
l-11 29t-9.5 24.5l-34 99h-199l-51 -141q-5 -14 -10.5 -27t-5.5 -33q0 -12 8.5 -22t22 -17.5t29 -12.5t28.5 -7v-24q-32 2 -64.5 3t-64.5 1q-30 0 -60 -1t-60 -3v24z" />
    <glyph glyph-name="B" unicode="B" 
d="M19 20q36 3 57 9t31.5 19t13.5 34.5t3 55.5v372q0 26 -4.5 47.5t-16 37t-32 24t-52.5 9.5v22q92 0 185 3t187 3q40 0 79.5 -11.5t71.5 -34.5t52 -57t20 -79q0 -48 -31 -83t-74 -50v-2q30 -6 58.5 -21.5t50.5 -38t35 -51t13 -61.5q0 -50 -18.5 -84t-51.5 -54.5
t-77.5 -29.5t-96.5 -9q-32 0 -89.5 5t-152.5 5q-31 0 -54.5 -0.5t-42 -1t-34 -1t-30.5 -1.5v24zM258 51q24 -11 49 -16t51 -5q70 0 114 37.5t44 109.5q0 40 -19.5 76.5t-49.5 61.5q-44 -11 -85 -11q-35 0 -59.5 3.5t-44.5 11.5v-268zM258 354q17 -6 36.5 -10t43.5 -4
q31 0 55.5 10.5t41.5 29t26 43.5t9 53q0 72 -40 106t-109 34q-16 0 -31 -1t-32 -2v-259z" />
    <glyph glyph-name="C" unicode="C" horiz-adv-x="722" 
d="M632 391q-7 46 -28 88.5t-52 75t-70.5 52t-85.5 19.5q-60 0 -101 -27t-66 -68.5t-35.5 -92.5t-10.5 -99q0 -62 17 -114.5t50 -91t82.5 -60t115.5 -21.5q47 0 85.5 14t69 36t54 49.5t41.5 54.5l24 -25q-57 -97 -141 -149t-197 -52q-75 0 -138 24.5t-109 69.5t-72 108.5
t-26 142.5q0 78 27 141.5t75 108.5t115 70t147 25q28 0 66 -5.5t73 -12.5q36 -7 63 -12.5t32 -5.5q8 0 11 1q0 -20 -1 -38.5t-1 -38.5q0 -42 3 -83.5t8 -83.5h-25z" />
    <glyph glyph-name="D" unicode="D" horiz-adv-x="852" 
d="M21 24q36 3 57 9t31.5 19t13.5 34.5t3 55.5v375q0 34 -3 55.5t-13.5 34.5t-32 19t-58.5 9v24q32 -3 63.5 -6t63.5 -3q62 0 129 5t159 5q68 0 135.5 -22.5t120.5 -67.5t86 -111.5t33 -154.5q0 -81 -28.5 -140t-77 -97t-112 -56.5t-134.5 -18.5q-41 0 -71 1t-59.5 2.5
t-62.5 3t-80 1.5q-53 0 -92 -1t-71 -3v28zM260 78q0 -14 12 -23.5t32 -15.5t46.5 -8.5t55.5 -2.5q59 0 107 17.5t82 53t52 89.5t18 127q0 67 -19.5 123.5t-56.5 98t-90.5 64.5t-121.5 23q-30 0 -59 -4t-58 -12v-530z" />
    <glyph glyph-name="E" unicode="E" 
d="M17 20q34 2 54.5 8.5t31.5 20t14.5 34.5t3.5 51v380q0 28 -3.5 49t-14.5 35t-31.5 21.5t-54.5 8.5v28q51 -2 102.5 -4t102.5 -2q97 0 193 2t196 4q-1 -18 -1 -36v-35q0 -31 1 -61t7 -55l-22 -4q-24 76 -76.5 114.5t-152.5 38.5h-112v-243h52q26 0 51 6.5t46.5 21
t37.5 38.5t24 59h20q-1 -35 -2.5 -71t-1.5 -71q0 -36 1.5 -71.5t2.5 -71.5h-20q-8 37 -23 62t-35 40t-45.5 21.5t-55.5 6.5h-52v-297q24 -7 53.5 -10.5t65.5 -3.5q98 0 177 46.5t134 144.5l19 -14q-25 -53 -47.5 -106t-39.5 -109q-78 2 -155 3t-155 1h-93q-44 0 -81.5 -0.5
t-67 -1.5t-48.5 -2v24z" />
    <glyph glyph-name="F" unicode="F" horiz-adv-x="648" 
d="M266 375h52q26 0 51 6.5t46.5 21t37.5 38.5t24 59h20q-1 -35 -2.5 -71t-1.5 -71q0 -36 1.5 -71.5t2.5 -71.5h-20q-8 37 -20 62t-31 40t-45 21.5t-63 6.5h-52v-231q0 -24 4 -41t16.5 -28t36 -16t61.5 -5v-28q-48 2 -95 3t-95 1q-42 0 -83 -1t-83 -3v28q33 0 53.5 5
t31.5 16t15 28t4 41v400q0 28 -3.5 49t-14.5 35t-31.5 21.5t-54.5 8.5v28q51 -2 102.5 -4t102.5 -2q97 0 192.5 2t192.5 4q-1 -18 -1 -36v-35q0 -31 0.5 -62t5.5 -62h-20q-22 85 -74.5 121t-150.5 36h-112v-243z" />
    <glyph glyph-name="G" unicode="G" horiz-adv-x="796" 
d="M657 438q-12 38 -31.5 72.5t-47 60t-65 40.5t-87.5 15q-63 0 -108.5 -25.5t-75 -67.5t-43.5 -96t-14 -112t14 -112t43.5 -96t75 -67.5t108.5 -25.5q39 0 79.5 16.5t66.5 43.5v100q0 21 -5 35t-17 23t-32.5 14.5t-52.5 9.5v24q34 -2 74.5 -3.5t89.5 -1.5q48 0 89 1.5
t74 3.5v-24q-45 -2 -65.5 -20.5t-20.5 -46.5v-152q-39 -12 -73.5 -24t-68 -21.5t-67.5 -15.5t-72 -6q-85 0 -155.5 23.5t-121.5 67.5t-79 108.5t-28 145.5t28 145.5t79 108.5t121.5 67.5t155.5 23.5q61 0 119 -13.5t115 -23.5q0 -27 1.5 -51t4.5 -47t7.5 -47t11.5 -50h-27z
" />
    <glyph glyph-name="H" unicode="H" horiz-adv-x="852" 
d="M19 20q30 2 50 5.5t32 14t17 29t5 49.5v390q0 36 -2.5 58t-13 35t-31 20t-55.5 11v24q86 -6 173 -6t172 6v-24q-37 -4 -59 -11t-33 -20t-14 -35t-3 -58v-132h332v132q0 36 -3 58t-13.5 35t-32 20t-59.5 11v24q89 -6 176 -6t172 6v-24q-37 -4 -58 -11t-31.5 -20t-13.5 -35
t-3 -58v-390q0 -31 5 -49.5t17 -29t32.5 -14t51.5 -5.5v-24q-43 2 -86.5 3t-86.5 1t-86 -1t-86 -3v24q30 2 50 5.5t32.5 14t17.5 29t5 49.5v216h-332v-216q0 -31 5 -49.5t17.5 -29t33 -14t50.5 -5.5v-24q-44 2 -87.5 3t-87.5 1q-42 0 -84.5 -1t-84.5 -3v24z" />
    <glyph glyph-name="I" unicode="I" horiz-adv-x="407" 
d="M25 656q46 -2 91 -4t91 -2q44 0 86.5 2t86.5 4v-24q-34 -1 -56.5 -7.5t-35 -19t-17.5 -33t-5 -50.5v-424q0 -39 25 -57t86 -21l-2 -24q-44 2 -87 3t-87 1q-45 0 -90 -1t-90 -3v24q61 3 86 21t25 57v424q0 59 -22.5 83.5t-84.5 26.5v24z" />
    <glyph glyph-name="J" unicode="J" horiz-adv-x="630" 
d="M375 549q0 47 -36.5 66t-97.5 17v24q51 -2 100.5 -4t100.5 -2q39 0 77.5 2t77.5 4v-24q-48 -2 -68 -17t-20 -56v-401q0 -27 -14.5 -56.5t-46 -53.5t-80.5 -40t-118 -16q-34 0 -73.5 8t-73.5 26t-56.5 46.5t-22.5 69.5q0 14 4.5 28t13.5 25t22.5 18t30.5 7q34 0 55.5 -19
t21.5 -54q0 -26 -15 -44q15 -35 43 -57t67 -22q30 0 51 15t33.5 37.5t18 50t5.5 52.5v370z" />
    <glyph glyph-name="K" unicode="K" horiz-adv-x="759" 
d="M125 532q0 20 -5 38t-17 31.5t-32 22t-50 8.5v24q83 -6 164 -6q45 0 90.5 2t90.5 4v-24q-32 0 -52.5 -8.5t-32.5 -22t-17 -31.5t-5 -38v-202q8 6 28.5 23.5t46.5 41t54.5 50t52 52t39 47t15.5 34.5q0 12 -7 21.5t-17.5 16.5t-22.5 11t-22 5v24q39 -5 78 -5.5t79 -0.5
q42 0 81 1t81 5v-24q-51 -6 -94.5 -28.5t-82.5 -53t-75.5 -65t-74.5 -64.5l205 -294q16 -23 31.5 -41.5t33.5 -32t40 -22t52 -11.5v-24q-45 2 -90.5 3t-90.5 1t-89 -1t-89 -3v20q8 2 22 5t27.5 9t23.5 14.5t10 21.5q0 7 -11.5 27.5t-29.5 48t-39.5 59t-42 60t-36.5 50.5
t-23 32l-63 -50v-171q0 -24 3 -42.5t13.5 -31t31.5 -19.5t57 -9v-24q-46 2 -91 3t-90 1q-41 0 -81 -1t-81 -3v24q36 2 56.5 9t31 19.5t13.5 31t3 42.5v410z" />
    <glyph glyph-name="L" unicode="L" horiz-adv-x="667" 
d="M127 535q0 28 -7.5 45t-21 27.5t-32.5 16t-43 8.5v24q90 -6 181 -6q92 0 185 6v-24q-23 -3 -46 -8.5t-41 -16t-29.5 -27.5t-11.5 -45v-494q14 -4 39 -5.5t54 -1.5q56 0 98 11t76 34.5t61 59t52 83.5l25 -11q-26 -52 -45.5 -105.5t-33.5 -109.5q-69 2 -138.5 3t-138.5 1
q-72 0 -144.5 -1t-144.5 -3v24q20 0 39 2t34 9.5t24 21.5t9 38v444z" />
    <glyph glyph-name="M" unicode="M" horiz-adv-x="944" 
d="M413 2q-15 56 -38.5 123t-53 138t-62 142.5t-64.5 136.5h-2q-5 -43 -12 -81.5t-13.5 -81t-11 -93t-4.5 -117.5q0 -34 2.5 -60.5t13.5 -45t33 -30t61 -17.5v-20q-33 2 -65.5 3t-65.5 1q-35 0 -69.5 -1t-69.5 -3v20q30 3 49.5 14t31 28.5t17.5 40.5t10 50
q17 106 29.5 211.5t32.5 211.5q-17 26 -45 40.5t-57 19.5v24q42 -2 84.5 -4t84.5 -2q36 0 73 1t73 5v-24q-23 -3 -41 -12.5t-18 -36.5q0 -11 14 -45t36 -83.5t48.5 -110.5t50.5 -126q7 11 21 41t31 69.5t35 83t32.5 81.5t24 65.5t9.5 34.5q0 9 -9 16t-21.5 11.5t-25 7.5
t-20.5 4v24l78 -4t78 -2q89 0 177 6v-24q-47 -4 -74 -24t-27 -71q0 -11 5 -47t12.5 -84.5t16.5 -103t17.5 -101t14.5 -79t8 -37.5q7 -19 15 -31t19 -19.5t26 -11.5t34 -7v-20q-38 2 -76.5 3t-76.5 1q-51 0 -101.5 -1t-101.5 -3v18q24 5 46.5 9t40.5 13.5t28.5 26.5t10.5 47
q0 5 -4.5 35t-11 73.5t-15 95t-16.5 98.5t-14.5 84t-10.5 52h-2q-21 -70 -49.5 -137t-57 -134.5t-53 -135.5t-38.5 -139h-27z" />
    <glyph glyph-name="N" unicode="N" horiz-adv-x="796" 
d="M0 20q47 7 74 15t41 24.5t18 43.5t4 72l4 389q-13 15 -29.5 26t-34.5 18.5t-37 13t-38 10.5v24q26 -2 52.5 -4t52.5 -2q69 0 136 6q100 -124 202.5 -242t197.5 -245h2v81q0 49 -1.5 101.5t-4.5 102t-9 83.5q-4 26 -13.5 42.5t-24.5 27t-34.5 16t-43.5 9.5v24
q35 -2 70.5 -4t70.5 -2q70 0 139 6v-24q-39 -2 -62 -11t-34.5 -30t-15 -56.5t-3.5 -90.5v-459h-59q-30 46 -68 98t-79.5 104.5t-84 103.5t-81.5 96t-72 82.5t-56 61.5v-339q0 -51 4 -81.5t17.5 -48.5t39.5 -26.5t70 -15.5v-24q-37 2 -73 3t-73 1q-42 0 -82 -1t-82 -3v24z
" />
    <glyph glyph-name="O" unicode="O" horiz-adv-x="852" 
d="M422 670q85 0 155.5 -23.5t121.5 -67.5t79 -108.5t28 -145.5t-28 -145.5t-79 -108.5t-121.5 -67.5t-155.5 -23.5t-155.5 23.5t-121.5 67.5t-79 108.5t-28 145.5t28 145.5t79 108.5t121.5 67.5t155.5 23.5zM422 634q-62 0 -107.5 -25t-75 -68t-43.5 -98.5t-14 -117.5
q0 -61 14 -117t43.5 -99t75 -68t107.5 -25t107.5 25t75 68t43.5 99t14 117q0 62 -14 117.5t-43.5 98.5t-75 68t-107.5 25z" />
    <glyph glyph-name="P" unicode="P" horiz-adv-x="648" 
d="M269 340q16 -7 36.5 -12t39.5 -5q68 0 102.5 42.5t34.5 107.5q0 32 -7 59.5t-22 48t-39.5 32t-59.5 11.5q-23 0 -44 -4t-41 -12v-268zM135 516q0 34 -4 55t-15.5 33.5t-32.5 18.5t-55 9v24q29 -2 67 -4t85 -2t94.5 5t97.5 5q47 0 91 -12t78 -36t54.5 -61.5t20.5 -88.5
q0 -45 -18.5 -77.5t-49 -54.5t-69 -32.5t-79.5 -10.5q-33 0 -66.5 5t-64.5 17v-175q0 -34 3 -55.5t14 -34.5t33 -19t61 -9v-20q-43 2 -85.5 3t-85.5 1q-46 0 -91 -1t-90 -3v20q37 3 58.5 9t32 19t13.5 34.5t3 55.5v382z" />
    <glyph glyph-name="Q" unicode="Q" horiz-adv-x="852" 
d="M86 -72q37 25 79 33.5t85 8.5q45 0 96.5 -16.5t104.5 -36t104.5 -35.5t95.5 -16q61 0 102.5 20t80.5 67l20 -16q-18 -32 -41.5 -62.5t-53.5 -54t-66.5 -38t-80.5 -14.5q-40 0 -77.5 12t-72.5 30.5t-68 39.5t-66 39.5t-66 30.5t-68 12q-25 0 -53 -7t-46 -18zM422 670
q85 0 155.5 -23.5t121.5 -67.5t79 -108.5t28 -145.5t-28 -145.5t-79 -108.5t-121.5 -67.5t-155.5 -23.5t-155.5 23.5t-121.5 67.5t-79 108.5t-28 145.5t28 145.5t79 108.5t121.5 67.5t155.5 23.5zM422 634q-62 0 -107.5 -25t-75 -68t-43.5 -98.5t-14 -117.5q0 -61 14 -117
t43.5 -99t75 -68t107.5 -25t107.5 25t75 68t43.5 99t14 117q0 62 -14 117.5t-43.5 98.5t-75 68t-107.5 25z" />
    <glyph glyph-name="R" unicode="R" horiz-adv-x="722" 
d="M20 654q37 -2 72.5 -3t80.5 -1q54 0 108 3t113 3q52 0 93.5 -15t71 -41.5t45 -61.5t15.5 -76q0 -35 -11.5 -61.5t-31.5 -46t-47 -32.5t-59 -20q21 -34 52 -80.5t68.5 -90t80.5 -76.5t88 -41v-18q-29 2 -56.5 3t-56.5 1q-25 0 -50 -1t-50 -3q-63 67 -116.5 140t-97.5 153
q-17 2 -38.5 6t-32.5 12v-173q0 -34 2.5 -55t13 -33t30.5 -17.5t55 -8.5v-24q-35 2 -76.5 3t-84.5 1q-46 0 -91 -1t-90 -3v24q37 3 58.5 8.5t32 17.5t13.5 33t3 55v380q0 30 -3 51t-13.5 35t-32 21.5t-58.5 10.5v22zM261 346q32 -15 67 -15q66 0 106.5 37t40.5 108
q0 30 -9.5 56.5t-27.5 46t-43 30.5t-56 11q-20 0 -39 -2t-39 -9v-263z" />
    <glyph glyph-name="S" unicode="S" horiz-adv-x="611" 
d="M504 457q-10 37 -32.5 69t-52 56t-64.5 38t-71 14q-45 0 -76.5 -23.5t-31.5 -70.5q0 -36 28.5 -61t71.5 -45.5t92.5 -41.5t92.5 -50.5t71.5 -70.5t28.5 -102q0 -43 -17 -78t-48 -59.5t-75 -38t-98 -13.5q-25 0 -50 4.5t-49.5 10t-49.5 10t-50 4.5q-4 0 -10.5 -1.5
t-14 -3.5t-14.5 -4t-11 -4q-8 56 -17 113t-23 115h22q11 -37 36 -73t58.5 -64.5t72.5 -45.5t77 -17q33 0 60 5t46.5 16.5t30 31t10.5 49.5q0 41 -29 68.5t-72.5 50t-94 43.5t-94 48t-72.5 64t-29 91q0 94 57 136.5t173 42.5q30 0 58 -4.5t53 -10.5t47 -10.5t41 -4.5h36
q-1 -17 -2 -32t-1 -31q0 -29 2.5 -60t4.5 -60h-21z" />
    <glyph glyph-name="T" unicode="T" horiz-adv-x="648" 
d="M606 447q-11 56 -29.5 88.5t-45.5 49.5t-62 22t-80 5v-478q0 -34 3 -55.5t14 -34.5t33 -19t60 -9v-20q-42 2 -84.5 3t-85.5 1q-46 0 -91 -1t-93 -3v20q38 3 60 9t33 19t14 34.5t3 55.5v478q-45 0 -80 -5t-62 -22t-45.5 -49.5t-29.5 -88.5h-26q2 19 3.5 38.5t3 43.5
t2.5 55t1 72q75 -2 148 -4t147 -2q75 0 150 2t151 4q0 -41 1 -72t2.5 -55t3 -43.5t3.5 -38.5h-22z" />
    <glyph glyph-name="U" unicode="U" horiz-adv-x="796" 
d="M7 656q87 -6 175 -6q89 0 177 6l-3 -24q-37 -2 -58.5 -8t-32 -18.5t-13.5 -34t-3 -55.5v-332q0 -27 10.5 -53.5t33 -47.5t58 -34t85.5 -13q60 0 99.5 18.5t62 45.5t31.5 59t9 59v246q0 50 -5 82t-18 51t-35 27t-57 8v24q23 -2 57.5 -4t72.5 -2q31 0 61.5 2t60.5 4v-24
q-33 -2 -51.5 -8t-28.5 -18.5t-12.5 -34t-2.5 -55.5v-274q0 -125 -70.5 -193.5t-197.5 -68.5q-76 0 -131 18.5t-91 48.5t-53.5 67t-17.5 74v328q0 27 -3 47.5t-14 35t-33.5 23t-61.5 10.5v24z" />
    <glyph glyph-name="V" unicode="V" 
d="M-20 656q83 -6 166 -6q43 0 86.5 2t86.5 4v-24q-16 -2 -32 -5t-28.5 -9.5t-20 -17.5t-7.5 -31q0 -15 15.5 -55.5t40 -98.5t55.5 -129.5t61 -148.5q33 84 62.5 155.5t52 127.5t35.5 94.5t13 56.5t-9.5 30t-24 18.5t-30 9.5t-27.5 3v24q32 -2 65 -4t65 -2q29 0 58.5 2
t58.5 4v-24q-19 -4 -33 -9t-24 -12.5t-18 -18.5t-16 -27q-79 -160 -140 -299.5t-110 -273.5h-55q-29 64 -58.5 134t-60.5 143.5t-63 148t-65 146.5q-14 31 -37 46.5t-62 21.5v24z" />
    <glyph glyph-name="W" unicode="W" horiz-adv-x="1000" 
d="M-4 656q33 -2 65.5 -4t65.5 -2q81 0 162 6v-24q-13 0 -25.5 -1t-23 -6t-17 -14t-6.5 -26q0 -3 7.5 -25.5t20 -57.5t28.5 -79t32.5 -90t32.5 -90.5t28 -81.5h2l108 279q-22 62 -38 98t-30.5 55.5t-30.5 27t-39 11.5v24q74 -6 146 -6q42 0 84.5 2t84.5 4v-24
q-12 -1 -28 -2.5t-30 -6.5t-24 -14.5t-10 -26.5q0 -8 9 -37.5t23 -71t31.5 -89t34 -92.5t31 -81.5t21.5 -55.5q6 14 19.5 46.5t30.5 74t35 88t33 88t24.5 74t9.5 46.5q0 18 -8.5 29t-21.5 17.5t-27 9.5t-26 4v24q32 -2 62.5 -4t62.5 -2q29 0 57.5 2t57.5 4v-24
q-24 -3 -40 -9.5t-28 -17.5t-21.5 -25.5t-19.5 -34.5t-28 -60t-40 -91.5t-46.5 -109t-47 -113t-41.5 -104t-31 -80.5h-35l-148 407q-39 -104 -82.5 -204t-86.5 -203h-30l-195 544q-7 21 -15 39t-19.5 31.5t-28 21.5t-41.5 9v24z" />
    <glyph glyph-name="X" unicode="X" horiz-adv-x="741" 
d="M12 656q86 -6 169 -6q42 0 82 2t82 4v-24q-24 0 -43.5 -7.5t-19.5 -32.5q0 -12 16 -38t37 -55t41 -55.5t28 -39.5q9 16 27.5 40.5t37 51t33 51.5t14.5 41q0 14 -8 22.5t-19 13t-24 6.5t-23 2v24q32 -2 63.5 -4t63.5 -2q68 0 135 6v-24q-41 0 -77.5 -24t-70 -61.5
t-66 -82.5t-65.5 -87l186 -255q14 -19 30 -37t34.5 -32.5t41 -23.5t47.5 -9v-24q-46 2 -92 3t-93 1t-93.5 -1t-94.5 -3v24q15 0 30.5 2t28 8t20.5 17.5t8 29.5q0 11 -14 32.5t-35.5 50t-46.5 61.5t-46 66q-11 -17 -34 -47.5t-46.5 -63t-41.5 -61.5t-18 -43q0 -30 28 -39.5
t70 -12.5v-24q-39 2 -78 3t-78 1q-54 0 -89.5 -1t-52.5 -3v28q37 2 68.5 18t58.5 39.5t50 51.5t43 53l100 127l-174 229q-34 46 -61.5 67.5t-68.5 22.5v24z" />
    <glyph glyph-name="Y" unicode="Y" horiz-adv-x="722" 
d="M-27 656q44 -2 87.5 -4t87.5 -2q91 0 181 6v-24q-34 0 -60 -11.5t-26 -38.5q0 -10 18 -36.5t45.5 -63t59.5 -79t59 -84.5q7 11 19 31t26 44.5t28.5 51t26.5 50.5t19.5 44t7.5 31q0 35 -22.5 47.5t-52.5 13.5v24q35 -2 69.5 -4t69.5 -2q32 0 63.5 2t63.5 4v-24
q-30 -1 -52 -11.5t-41.5 -30t-38 -47t-41.5 -61.5l-127 -190v-181q0 -27 4 -44.5t15.5 -27.5t32 -14t53.5 -5l1 -24q-43 2 -85 3t-84 1q-45 0 -88.5 -1t-87.5 -3v24q33 1 53.5 5t32 14t15.5 27.5t4 44.5v173l-208 274q-26 34 -54 54t-74 20v24z" />
    <glyph glyph-name="Z" unicode="Z" 
d="M89 442q-1 12 -1 29v35q0 41 3.5 74.5t13.5 75.5q68 -1 134.5 -3.5t134.5 -2.5q72 0 142.5 1t142.5 5l11 -24q-65 -69 -124.5 -142t-116.5 -148t-113 -151t-115 -150q20 -2 40.5 -3.5t40.5 -1.5q61 0 116 8.5t101.5 30t82.5 58.5t57 94h25q-14 -60 -35.5 -118t-50.5 -113
q-69 2 -136 3t-136 1q-67 0 -134 -1t-134 -3l-17 21l471 603q-91 0 -159.5 -4t-115 -22t-71.5 -53.5t-30 -98.5h-27z" />
    <glyph glyph-name="bracketleft" unicode="[" horiz-adv-x="389" 
d="M82 670h280v-42h-162v-776h162v-42h-280v860z" />
    <glyph glyph-name="backslash" unicode="\" horiz-adv-x="278" 
d="M3 670l342 -690h-76l-342 690h76z" />
    <glyph glyph-name="bracketright" unicode="]" horiz-adv-x="389" 
d="M307 -190h-280v42h162v776h-162v42h280v-860z" />
    <glyph glyph-name="asciicircum" unicode="^" horiz-adv-x="600" 
d="M61 285l180 365h88l180 -365h-91l-133 277l-134 -277h-90z" />
    <glyph glyph-name="underscore" unicode="_" horiz-adv-x="500" 
d="M0 -125v50h500v-50h-500z" />
    <glyph glyph-name="grave" unicode="`" horiz-adv-x="296" 
d="M176 444l-150 100q-14 9 -19 20t-5 25q0 15 13.5 28t33.5 13q17 0 33.5 -12t36.5 -35l115 -139h-58z" />
    <glyph glyph-name="a" unicode="a" horiz-adv-x="481" 
d="M130 110q0 -31 18 -48.5t50 -17.5q18 0 35.5 6t31.5 19q-1 14 -1.5 26t-0.5 25q0 14 0.5 27t1.5 27q-14 2 -26.5 3t-26.5 1q-30 0 -56 -17t-26 -51zM265 284q0 68 -48 68q-17 0 -27.5 -6t-16 -15.5t-7.5 -21.5t-2 -23q0 -10 0.5 -16.5t1.5 -11.5q-37 8 -69 15t-65 12
q4 32 20 52.5t39.5 32t51.5 16t55 4.5q32 0 65 -5.5t59.5 -19t43.5 -36t17 -56.5q0 -18 -1 -40t-1.5 -43.5t-1.5 -41t-1 -32.5q0 -22 8 -40t34 -18q17 0 30.5 9t25.5 20l16 -18q-12 -10 -26.5 -25t-30 -28t-32.5 -22.5t-35 -9.5q-25 0 -49 18t-41 35q-37 -23 -78 -38
t-85 -15q-21 0 -41.5 7t-36.5 19.5t-25.5 29.5t-9.5 36q0 48 26 74.5t65.5 40t85.5 16.5t86 3v74z" />
    <glyph glyph-name="b" unicode="b" horiz-adv-x="537" 
d="M360 180q0 85 -23 124.5t-78 39.5t-78 -39.5t-23 -124.5t23 -124.5t78 -39.5t78 39.5t23 124.5zM164 350q28 17 62.5 28.5t67.5 11.5q44 0 81 -15.5t64 -42.5t42 -64t15 -81q0 -48 -20 -86t-52.5 -64t-74.5 -39.5t-87 -13.5q-53 0 -114 19t-111 48q3 18 5 44t3 56t1 61
v59v349q0 26 -18 38t-64 12v20q61 2 112 7t88 15v-362z" />
    <glyph glyph-name="c" unicode="c" horiz-adv-x="444" 
d="M425 64q-45 -38 -91.5 -59t-97.5 -21q-45 0 -87 13.5t-74.5 39.5t-52.5 64t-20 86t20 86t52.5 64t74.5 39.5t87 13.5q18 0 33.5 -2t30.5 -4t29.5 -4t28.5 -2h25q0 -15 0.5 -37t2 -46.5t3.5 -48.5t5 -44h-19q-8 21 -20 47.5t-29.5 49t-40.5 38t-53 15.5q-49 0 -75.5 -35
t-26.5 -87q0 -40 11 -74.5t31.5 -59t49.5 -38.5t64 -14q32 0 58.5 10.5t57.5 32.5z" />
    <glyph glyph-name="d" unicode="d" horiz-adv-x="556" 
d="M458 106q0 -21 2 -36.5t10 -25.5t25 -15t47 -5v-21q-27 0 -56 -1t-55.5 -2.5t-48.5 -3.5t-37 -4v39q-35 -21 -68.5 -34t-76.5 -13q-44 0 -79.5 15t-61 42t-39 64.5t-13.5 81.5q0 48 20 86t52.5 64t74.5 39.5t87 13.5q13 0 43.5 -8.5t55.5 -23.5v262q0 26 -17 38t-59 12
v20q57 2 107 7t87 15v-606zM345 277q-16 32 -34.5 51.5t-56.5 19.5q-34 0 -55.5 -14t-34 -36t-17 -49.5t-4.5 -54.5q0 -24 4.5 -51.5t16 -50t31 -37.5t49.5 -15q41 0 66 19t35 48v170z" />
    <glyph glyph-name="e" unicode="e" horiz-adv-x="463" 
d="M264 226q20 0 27 5t7 23q0 44 -18 71t-62 27q-23 0 -38.5 -12.5t-25 -31.5t-13.5 -41t-4 -41h127zM137 188q0 -63 35.5 -103.5t100.5 -40.5q35 0 68.5 15t56.5 43l24 -26q-39 -44 -91 -68t-109 -24q-49 0 -88 14.5t-67 41t-43 64t-15 83.5t15 83.5t43 64t67 41t88 14.5
q48 0 84.5 -15.5t62 -43t39.5 -64.5t18 -79h-289z" />
    <glyph glyph-name="f" unicode="f" horiz-adv-x="352" 
d="M201 344v-248q0 -18 4.5 -31.5t17 -23t34.5 -16t58 -9.5v-20q-40 2 -79 3t-79 1t-79 -1t-79 -3v20q30 0 48 5.5t27.5 16t12 25.5t2.5 34v247h-60l8 30h52v110q0 43 12.5 84t36.5 73t59.5 51.5t80.5 19.5q60 0 98.5 -25t38.5 -73q0 -26 -14.5 -38t-38.5 -12q-13 0 -23 2.5
t-20 6.5q-1 58 -10 83.5t-41 25.5q-18 0 -30.5 -9.5t-20.5 -24.5t-12 -34t-4 -37v-203h128v-30h-128z" />
    <glyph glyph-name="g" unicode="g" horiz-adv-x="500" 
d="M412 306q5 2 11 7t6 13t-5 15t-16 7q-15 0 -28 -7t-23 -16q25 -36 25 -77q0 -29 -12 -55t-34.5 -45.5t-55.5 -30.5t-75 -11q-29 0 -51.5 5t-43.5 13q-11 -6 -23.5 -15.5t-12.5 -25.5q0 -21 16.5 -28t49.5 -7q11 0 25.5 2t36 4.5t52 4.5t73.5 2q35 0 58.5 -9.5t38 -26.5
t21 -41.5t6.5 -53.5q0 -46 -21.5 -79.5t-58 -56t-85 -33.5t-102.5 -11q-91 0 -139.5 31.5t-48.5 83.5q0 30 14 53t34 44q-20 11 -28 28t-8 40q0 42 21 67.5t57 42.5q-31 21 -44.5 47t-13.5 61q0 29 12 55t34.5 45.5t55.5 30.5t75 11q43 0 76 -13t59 -33q9 7 21 17t25 19.5
t27 16t27 6.5q23 0 37.5 -17.5t14.5 -41.5q0 -5 -0.5 -12t-0.5 -13q-20 -4 -39 -10.5t-38 -14.5zM72 -90q0 -17 7.5 -30t24.5 -22t45.5 -13.5t71.5 -4.5q56 0 93 5.5t59 15.5t31 23.5t9 28.5q0 26 -24 38t-78 12q-63 0 -119.5 -5t-117.5 -15q0 -9 -1 -17t-1 -16zM203 358
q-34 0 -50.5 -28.5t-16.5 -81.5t16.5 -81.5t50.5 -28.5t50.5 28.5t16.5 81.5t-16.5 81.5t-50.5 28.5z" />
    <glyph glyph-name="h" unicode="h" horiz-adv-x="556" 
d="M182 326q35 30 70 47t79 17q61 0 96.5 -34.5t35.5 -92.5v-188q0 -18 6 -29.5t15.5 -18t21 -9t22.5 -2.5v-20q-10 1 -21 1.5t-25.5 1t-33.5 1t-45 0.5q-49 0 -77 -1t-45 -3v20q11 0 22.5 2.5t20.5 9t15 18t6 29.5v186q0 34 -23.5 49.5t-55.5 15.5q-24 0 -45.5 -11
t-38.5 -28v-212q0 -18 6 -29.5t15.5 -18t21 -9t22.5 -2.5v-20q-10 1 -21 1.5t-25.5 1t-33.5 1t-45 0.5q-49 0 -78 -1t-52 -3v20q28 0 50 11.5t22 47.5v545q0 50 -66 50v20q49 2 98 7t86 15v-386z" />
    <glyph glyph-name="i" unicode="i" horiz-adv-x="296" 
d="M195 75q0 -36 22 -47.5t51 -11.5v-20q-13 1 -26 1.5t-28 1t-34 1t-45 0.5q-49 0 -78 -1t-52 -3v20q28 0 50 11.5t22 47.5v229q0 26 -17 38t-55 12v20q54 2 104 7t89 15q-1 -25 -2 -49t-1 -47v-225zM130 670q32 0 54.5 -22t22.5 -55t-22.5 -55t-54.5 -22t-54.5 22
t-22.5 55t22.5 55t54.5 22z" />
    <glyph glyph-name="j" unicode="j" horiz-adv-x="278" 
d="M1 374q49 2 98 7t86 15v-364q0 -43 -15.5 -78t-46 -68t-75.5 -66t-105 -70l-7 25q40 33 65.5 67t40 68.5t20 68.5t5.5 67v238q0 41 -16 55.5t-50 14.5v20zM120 670q32 0 54.5 -22t22.5 -55t-22.5 -55t-54.5 -22t-54.5 22t-22.5 55t22.5 55t54.5 22z" />
    <glyph glyph-name="k" unicode="k" horiz-adv-x="556" 
d="M175 183q15 14 38 29.5t44.5 33.5t37.5 37t16 39q0 19 -13.5 26t-26.5 10v20q30 -2 59.5 -3t59.5 -1t59.5 1t59.5 3v-20q-27 -2 -53 -12t-51.5 -25.5t-49.5 -34t-48 -38.5q23 -30 50.5 -68.5t58.5 -73.5t64.5 -60.5t68.5 -29.5v-20q-35 2 -70.5 3t-70.5 1q-36 0 -71.5 -1
t-70.5 -3v20q23 5 36 10.5t13 19.5q0 8 -4 16.5t-10 17.5t-13 17.5t-13 15.5l-52 66l-48 -32v-72q0 -36 22 -47.5t51 -11.5v-20q-13 1 -26 1.5t-28 1t-34 1t-45 0.5q-49 0 -78 -1t-52 -3v20q28 0 50 11.5t22 47.5v545q0 26 -16.5 38t-53.5 12v20q52 2 101.5 7t86.5 15v-529z
" />
    <glyph glyph-name="l" unicode="l" horiz-adv-x="296" 
d="M196 75q0 -36 22 -47.5t51 -11.5v-20q-13 1 -26 1.5t-28 1t-34 1t-45 0.5q-49 0 -78 -1t-52 -3v20q28 0 50 11.5t22 47.5v533q0 35 -16.5 48.5t-53.5 13.5v20q52 2 101.5 7t86.5 15v-637z" />
    <glyph glyph-name="m" unicode="m" horiz-adv-x="815" 
d="M181 327q29 26 65.5 44.5t75.5 18.5q42 0 72 -12.5t48 -53.5q19 15 35.5 27.5t34.5 21t38 13t45 4.5q36 0 60 -12t38.5 -31.5t21 -43.5t6.5 -48v-180q0 -18 6 -29.5t15.5 -18t21 -9t22.5 -2.5v-20q-10 1 -21 1.5t-25.5 1t-33.5 1t-45 0.5q-49 0 -76 -1t-41 -3v20
q9 0 19.5 2.5t19 9t14.5 18t6 29.5v169q0 42 -20.5 61t-56.5 19q-20 0 -39 -8t-36 -21v-220q0 -18 6 -29.5t14.5 -18t18.5 -9t19 -2.5v-20q-15 2 -40.5 3t-77.5 1q-49 0 -76.5 -1t-42.5 -3v20q10 0 20.5 2.5t19.5 9t15 18t6 29.5v178q0 26 -18 48.5t-52 22.5
q-22 0 -44 -11.5t-38 -26.5v-211q0 -18 6 -29.5t14.5 -18t18.5 -9t18 -2.5v-20q-14 2 -39.5 3t-77.5 1q-49 0 -77 -1t-48 -3v20q12 0 24 2.5t21.5 9t15.5 18t6 29.5v229q0 50 -66 50v20q49 2 98 4.5t86 11.5v-63z" />
    <glyph glyph-name="n" unicode="n" horiz-adv-x="556" 
d="M183 326q35 30 70 47t79 17q61 0 96.5 -34.5t35.5 -92.5v-188q0 -18 6 -29.5t15.5 -18t21 -9t23.5 -2.5v-20q-21 1 -47.5 2.5t-78.5 1.5q-49 0 -77 -1t-45 -3v20q11 0 22.5 2.5t20.5 9t15 18t6 29.5v186q0 29 -22 47t-57 18q-24 0 -45.5 -11t-38.5 -28v-212
q0 -18 6 -29.5t15.5 -18t21 -9t22.5 -2.5v-20q-10 1 -21 1.5t-25.5 1t-33.5 1t-45 0.5q-49 0 -77.5 -1t-49.5 -3v20q13 0 25.5 2.5t22 9t15.5 18t6 29.5v229q0 50 -66 50v20q49 2 98 4.5t86 11.5v-64z" />
    <glyph glyph-name="o" unicode="o" horiz-adv-x="519" 
d="M143 206q0 -47 9 -82t24.5 -57.5t35.5 -33.5t41 -11q42 0 66 37t24 109q0 47 -9 82t-24.5 57.5t-35.5 33.5t-41 11q-42 0 -66 -37t-24 -109zM243 390q45 0 87 -13.5t74.5 -39.5t52.5 -64t20 -86t-20 -86t-52.5 -64t-74.5 -39.5t-87 -13.5t-87 13.5t-74.5 39.5t-52.5 64
t-20 86t20 86t52.5 64t74.5 39.5t87 13.5z" />
    <glyph glyph-name="p" unicode="p" horiz-adv-x="556" 
d="M292 -236q-44 2 -87 3t-87 1q-32 0 -64.5 -1t-64.5 -3v20q22 0 35 7t19.5 18t8 24t1.5 26v445q0 50 -66 50v20q49 2 98 7t86 15v-57q39 29 72 40t67 11q44 0 81 -15.5t64 -42.5t42 -64t15 -81q0 -47 -16 -83t-44 -60.5t-65.5 -37t-80.5 -12.5t-75 4.5t-60 18.5v-114
q0 -38 5 -60t18.5 -34t37 -17t60.5 -8v-20zM171 132q0 -45 23 -72.5t81 -27.5q55 0 78 38.5t23 114.5q0 78 -23 116.5t-78 38.5q-16 0 -32.5 -6t-30.5 -15.5t-25 -20.5t-16 -22v-144z" />
    <glyph glyph-name="q" unicode="q" horiz-adv-x="556" 
d="M353 252q-18 42 -45.5 71t-71.5 29q-45 0 -70.5 -36.5t-25.5 -114.5t29.5 -118.5t86.5 -40.5q28 0 52.5 13t44.5 33v164zM368 384h139v-2q-18 -8 -27 -17t-9 -30v-473q0 -35 13 -52.5t53 -25.5v-20q-33 2 -66 3t-66 1q-42 0 -84.5 -1t-84.5 -3v20q31 1 53 4t36.5 11
t21 23t6.5 42v168q-35 -19 -69 -28.5t-82 -9.5q-42 0 -77 13.5t-60.5 38.5t-40 61t-14.5 80q0 45 14.5 82t42.5 64t67.5 42t89.5 15q66 0 124 -37z" />
    <glyph glyph-name="r" unicode="r" horiz-adv-x="426" 
d="M184 86q0 -36 22 -52t76 -18v-20q-35 2 -70 3t-70 1t-70 -1t-70 -3v20q33 2 51.5 18t18.5 52v198q0 36 -18.5 52t-51.5 18v20q14 0 39.5 2.5t53 5.5t52 6.5t37.5 5.5v-70l34 28t35 25.5t38 19t43 7.5q37 0 51.5 -23t14.5 -68q-12 -6 -28.5 -13.5l-33 -15t-31 -15
t-23.5 -12.5l-12 8q7 5 16.5 14.5t9.5 19.5q0 18 -10.5 26.5t-27.5 8.5q-7 0 -17.5 -4.5t-21.5 -11t-21 -15t-16 -16.5v-201z" />
    <glyph glyph-name="s" unicode="s" horiz-adv-x="407" 
d="M44 140q27 -52 71.5 -88t105.5 -36q22 0 39 10t17 33q0 21 -18.5 35t-46 25.5t-60 23t-60 28t-46 40.5t-18.5 60q0 34 12 56.5t31.5 36.5t44.5 20t50 6q32 0 71.5 -9t76.5 -9q6 0 14 2l8 -124h-24q-9 18 -23.5 37t-33 34.5t-39.5 26t-42 10.5t-38.5 -8.5t-17.5 -34.5
q0 -21 18 -35t45 -25.5t58.5 -23t58.5 -28t45 -40t18 -58.5q0 -34 -13 -57t-34.5 -37.5t-49 -20.5t-56.5 -6q-46 0 -91 8.5t-87 25.5l-9 122h23z" />
    <glyph glyph-name="t" unicode="t" horiz-adv-x="352" 
d="M-13 340v23q32 2 57.5 15t45 33t34.5 45.5t26 52.5h20v-135h138v-34h-138v-212q0 -44 13.5 -61t47.5 -17q18 0 38.5 12t37.5 29l21 -23q-15 -13 -34 -28t-40.5 -27.5t-43 -20.5t-41.5 -8q-52 0 -81.5 25.5t-29.5 76.5v254h-71z" />
    <glyph glyph-name="u" unicode="u" horiz-adv-x="537" 
d="M445 70q0 -26 17 -38t55 -12v-20q-54 -2 -103.5 -4.5t-86.5 -11.5v59q-32 -23 -69 -41t-81 -18q-54 0 -87 33t-33 99v188q0 50 -66 50v20q49 2 98 4.5t86 11.5v-267q0 -35 18 -54t49 -19q28 0 48 9t37 25v220q0 26 -17 38t-55 12v20q54 2 103.5 4.5t86.5 11.5v-320z" />
    <glyph glyph-name="v" unicode="v" horiz-adv-x="500" 
d="M495 358q-13 -2 -24 -6t-23 -16t-27 -35.5t-37 -64t-53 -101.5t-75 -149h-59q-48 117 -80 188.5t-56 111.5t-44 54.5t-44 17.5v20q32 -2 64.5 -3t64.5 -1q35 0 70.5 1t70.5 3v-20q-23 -2 -40.5 -11.5t-17.5 -30.5q0 -14 12 -45.5t27 -67t29.5 -68.5t19.5 -49
q8 19 24 49.5t32 63.5t27.5 63t11.5 48q0 28 -16 36t-39 12v20q24 -2 48.5 -3t48.5 -1q21 0 42.5 1t42.5 3v-20z" />
    <glyph glyph-name="w" unicode="w" horiz-adv-x="741" 
d="M-34 378q36 -2 71.5 -3t71.5 -1q31 0 61 1t61 3v-20q-9 -1 -18.5 -3.5t-17.5 -7t-13.5 -12t-5.5 -18.5q0 -10 11 -39.5t24.5 -63.5t27 -65t17.5 -43l88 182q-13 25 -31.5 45.5t-48.5 22.5v22q32 -2 63.5 -3t63.5 -1q29 0 58 1t58 3v-20q-9 0 -18.5 -1t-18 -5.5t-13.5 -12
t-5 -20.5t9 -38.5t22 -56t26.5 -62.5t22.5 -58q8 15 22 43.5t28 59t24 58t10 40.5q0 23 -17.5 37.5t-40.5 15.5v20q23 -2 46 -3t46 -1t46 1t46 3v-20q-16 -3 -28.5 -8.5t-25.5 -20t-28 -39t-35 -65t-46 -99t-62 -140.5h-49l-108 264l-126 -264h-44q-48 122 -78 193.5
t-53 109t-44 50.5t-49 19v20z" />
    <glyph glyph-name="x" unicode="x" horiz-adv-x="537" 
d="M-18 16q25 7 45 18t44 29t55.5 44.5t78.5 64.5q-42 51 -69.5 84t-49 53.5t-42 31t-48.5 17.5v20q35 -2 69 -3t69 -1q34 0 68 1t69 3v-20q-17 -1 -29.5 -9t-12.5 -24q0 -7 7 -19.5t17 -25.5t19.5 -24.5t13.5 -17.5q9 7 20 17t20.5 22t16.5 25t7 25t-10.5 21.5t-24.5 9.5
v20q24 -2 48.5 -3t48.5 -1t48.5 1t48.5 3v-20q-24 -6 -42 -14.5t-39 -24.5t-50 -41t-75 -64q42 -56 71 -90.5t52 -55t45 -31.5t52 -21v-20q-38 2 -74.5 3t-74.5 1t-74.5 -1t-74.5 -3v20q23 2 39 7.5t16 24.5q0 10 -6.5 22t-15.5 25t-19 26.5t-18 25.5q-9 -9 -24 -20.5
t-29.5 -24.5t-25.5 -26.5t-11 -27.5q0 -19 15 -24.5t30 -7.5v-20q-24 2 -48.5 3t-48.5 1t-48.5 -1t-48.5 -3v20z" />
    <glyph glyph-name="y" unicode="y" horiz-adv-x="537" 
d="M-27 378q38 -2 74.5 -3t74.5 -1q32 0 63 1t63 3v-20q-21 -3 -39.5 -15.5t-18.5 -38.5q0 -19 13 -53t30 -71.5t34 -72.5t25 -56q8 20 25 56.5t34.5 75.5t31 74t13.5 52q0 27 -18 38t-42 11v20q26 -2 52.5 -3t52.5 -1q23 0 45.5 1t45.5 3v-20q-32 0 -57.5 -27t-51.5 -86
q-15 -33 -41.5 -86t-57 -109.5t-60 -109.5t-50.5 -86q-30 -48 -73 -76t-103 -28q-18 0 -37.5 6.5t-35.5 18.5t-26.5 29.5t-10.5 39.5q0 30 18 51t50 21q25 0 42.5 -16t17.5 -41q0 -9 -2 -18t-2 -18q0 -16 13 -20.5t26 -4.5q21 0 41.5 17t37.5 40t31 48t22 41l-151 331
q-15 34 -37 56t-62 27v20z" />
    <glyph glyph-name="z" unicode="z" horiz-adv-x="463" 
d="M407 346l-261 -318h42q36 0 68 3.5t58.5 15.5t47 35t32.5 62h23l-26 -148q-38 2 -82 3t-96 1q-58 0 -108 -1t-93 -3l-12 28l265 322h-67q-32 0 -57.5 -5.5t-45 -18.5t-34.5 -34t-26 -52h-15l12 142q38 -2 79 -3t102 -1q60 0 102.5 1t80.5 3z" />
    <glyph glyph-name="braceleft" unicode="{" horiz-adv-x="389" 
d="M242 368q0 -26 -3 -47t-11.5 -36.5t-24.5 -26.5t-42 -17v-2q26 -6 42 -17t24.5 -26.5t11.5 -36.5t3 -47v-157q0 -52 15.5 -81.5t57.5 -41.5v-22q-51 0 -87 5t-59.5 20t-34 42.5t-10.5 72.5v176q0 24 -3 42.5t-11.5 32t-23.5 23t-38 16.5q23 7 38 16.5t23.5 23t11.5 32
t3 42.5v176q0 45 10.5 72.5t34 42.5t59.5 20t87 5v-22q-42 -12 -57.5 -41.5t-15.5 -81.5v-157z" />
    <glyph glyph-name="bar" unicode="|" horiz-adv-x="222" 
d="M70 712h76v-712h-76v712z" />
    <glyph glyph-name="braceright" unicode="}" horiz-adv-x="389" 
d="M147 525q0 52 -15.5 81.5t-57.5 41.5v22q51 0 87 -5t59.5 -20t34 -42t10.5 -72v-177q0 -48 15 -74t61 -40q-46 -13 -61 -39.5t-15 -74.5v-177q0 -45 -10.5 -72t-34 -42t-59.5 -20t-87 -5v22q42 12 57.5 41.5t15.5 81.5v157q0 26 3 47t11.5 36.5t24.5 26.5t42 17v2
q-26 6 -42 17t-24.5 26.5t-11.5 36.5t-3 47v157z" />
    <glyph glyph-name="asciitilde" unicode="~" horiz-adv-x="600" 
d="M522 195q-11 -16 -23.5 -31.5t-27 -27.5t-33 -19.5t-41.5 -7.5q-28 0 -52.5 9.5t-49.5 23.5q-24 14 -52 24.5t-63 10.5q-16 0 -29 -6.5t-23.5 -16.5t-18 -23t-13.5 -26l-36 74q8 16 19.5 31.5t26.5 27.5t34.5 19.5t44.5 7.5q26 0 54 -9.5t57 -22.5q28 -12 55 -24t47 -12
q15 0 27.5 6.5t23 16.5t19.5 23l18 26z" />
    <glyph glyph-name="exclamdown" unicode="&#xa1;" horiz-adv-x="278" 
d="M136 420q32 0 54.5 -22t22.5 -55t-22.5 -55t-54.5 -22t-54.5 22t-22.5 55t22.5 55t54.5 22zM151 228q6 -31 10.5 -62t7.5 -65t4 -71.5t1 -81.5q0 -41 1 -68.5t5.5 -45.5t13 -29.5t24.5 -21.5v-19l-163 -8q-3 14 -4 27.5t-1 27.5q0 38 7.5 75.5t17.5 74.5t20.5 74t17.5 74
q5 29 7 59l4 60h27z" />
    <glyph glyph-name="cent" unicode="&#xa2;" horiz-adv-x="519" 
d="M233 491h38v-107q22 0 49.5 -6t58.5 -6q13 0 22.5 1.5t18.5 3.5q0 -123 6 -158h-28q-5 25 -15 48.5t-25.5 41.5t-37 29t-49.5 12v-296q11 -2 21 -2h22q31 0 60.5 12.5t54.5 31.5l21 -21q-36 -34 -82.5 -53.5t-96.5 -21.5v-112h-38v112q-40 0 -76 11.5t-63 34.5t-43 58.5
t-16 84.5q0 44 14.5 78.5t40.5 59.5t62.5 39.5t80.5 17.5v107zM233 346q-22 -6 -37.5 -19.5t-26 -31.5t-15.5 -38.5t-5 -41.5q0 -53 17 -90t67 -60v281z" />
    <glyph glyph-name="sterling" unicode="&#xa3;" horiz-adv-x="519" 
d="M-11 14q38 11 60.5 31.5t34.5 48t16 59.5t4 66q0 20 -1 40.5t-1 40.5h-89l22 36h67v82q0 47 14 90.5t40 76.5t64 53t86 20q29 0 55.5 -6.5t46.5 -19t31.5 -32t11.5 -46.5q0 -32 -13.5 -51t-48.5 -19q-11 0 -24 2.5t-22 10.5q5 19 7.5 37t2.5 35q0 20 -10.5 37.5
t-33.5 17.5q-29 0 -46.5 -17.5t-27 -42t-12.5 -52.5t-3 -49q0 -32 1.5 -64t1.5 -63h133v-38h-132q-2 -65 -27 -116t-75 -86v-2h187q28 0 49 2.5t38.5 11t32.5 24t30 40.5l19 -18q-23 -40 -42.5 -79.5t-38.5 -78.5q-51 2 -102 3t-103 1q-51 0 -101.5 -1t-101.5 -3v18z" />
    <glyph glyph-name="currency" unicode="&#xa4;" horiz-adv-x="519" 
d="M495 528l-55 -55q25 -28 37 -67t12 -81t-12 -81t-37 -67l55 -55l-51 -50l-57 55q-27 -23 -65 -36t-80 -13t-80 13t-65 36l-57 -55l-51 50l55 55q-25 28 -37 67t-12 81t12 81t37 67l-55 55l51 50l57 -55q27 23 65 36t80 13t80 -13t65 -36l57 55zM77 325q0 -34 12.5 -65.5
t34.5 -54.5t52 -37t66 -14t66 14t52 37t34.5 54.5t12.5 65.5q0 35 -12.5 66t-34.5 54t-52 37t-66 14t-66 -14t-52 -37t-34.5 -54t-12.5 -66z" />
    <glyph glyph-name="yen" unicode="&#xa5;" horiz-adv-x="519" 
d="M220 634q-22 0 -39.5 -12.5t-17.5 -39.5q0 -5 8 -24.5t20 -45.5t26.5 -56.5t28 -58t24 -48.5t14.5 -30q3 8 11 28t17 45.5t19 53.5t18.5 53t13.5 44.5t5 27.5q0 35 -15 47t-35 16v22l46 -4t46 -2q21 0 42 2l42 4v-22q-20 0 -36 -14t-29.5 -36.5t-25 -51.5t-22.5 -58
l-31 -86h90v-38h-104l-29 -80h133v-38h-133v-121q0 -32 3.5 -49.5t11.5 -26.5t21.5 -11.5t33.5 -3.5v-24q-37 2 -66 3t-57 1q-29 0 -59.5 -1t-68.5 -3v24q20 1 33 3.5t21 11.5t11.5 26.5t3.5 49.5v121h-133v38h133l-35 80h-98v38h81l-29 65q-14 32 -27.5 64t-28 58
t-32.5 42.5t-41 16.5v22l58 -4t58 -2q61 0 119 6v-22z" />
    <glyph glyph-name="brokenbar" unicode="&#xa6;" horiz-adv-x="222" 
d="M78 266h68v-266h-68v266zM70 712h76v-266h-76v266z" />
    <glyph glyph-name="section" unicode="&#xa7;" horiz-adv-x="500" 
d="M247 670q30 0 55 -8t44 -21.5t29.5 -31.5t10.5 -39q0 -30 -17 -44t-46 -14q-17 0 -35 13.5t-18 32.5q0 15 6.5 24.5t14 15.5t13.5 11.5t6 12.5q0 11 -13 18.5t-48 7.5q-42 0 -61 -20.5t-19 -52.5q0 -23 20 -45.5t50 -46t64.5 -48.5t64.5 -54.5t50 -63t20 -74.5
q0 -58 -33.5 -89.5t-93.5 -31.5v-2q49 -38 66 -73.5t17 -68.5q0 -34 -14 -59.5t-37 -42t-53 -24.5t-62 -8q-28 0 -52.5 7.5t-43 21.5t-29 34t-10.5 46q0 23 17.5 40.5t42.5 17.5q26 0 41 -15t15 -42q0 -14 -3 -22.5t-7 -15.5t-7 -12t-3 -11q0 -27 45 -27q50 0 71 19t21 52
q0 27 -20 52t-50 49t-65 48.5t-65 52t-50 59.5t-20 70q0 59 31.5 92.5t81.5 33.5q11 0 20.5 -1t21.5 -4l2 2q-46 24 -79 60.5t-33 92.5q0 32 12.5 56t33 39.5t47 23t53.5 7.5zM124 309q0 -21 20 -49t49 -54t60.5 -44t54.5 -18q62 0 62 61q0 21 -21.5 49.5t-50.5 55t-60 44.5
t-51 18q-27 0 -45 -16t-18 -47z" />
    <glyph glyph-name="dieresis" unicode="&#xa8;" horiz-adv-x="296" 
d="M247 582q27 0 45.5 -18.5t18.5 -45.5t-18.5 -45.5t-45.5 -18.5t-45.5 18.5t-18.5 45.5t18.5 45.5t45.5 18.5zM50 582q27 0 45.5 -18.5t18.5 -45.5t-18.5 -45.5t-45.5 -18.5t-45.5 18.5t-18.5 45.5t18.5 45.5t45.5 18.5z" />
    <glyph glyph-name="copyright" unicode="&#xa9;" horiz-adv-x="800" 
d="M400 -20q-72 0 -134 26.5t-107 73t-70.5 109.5t-25.5 135q0 73 25.5 136t70.5 109.5t107 73.5t134 27t134 -27t107 -73.5t70.5 -109.5t25.5 -136q0 -72 -25.5 -135t-70.5 -109.5t-107 -73t-134 -26.5zM400 34q57 0 105.5 23t84 62.5t55.5 92t20 112.5t-20 113t-55.5 93
t-84 63t-105.5 23t-105.5 -23.5t-84 -63t-55.5 -92.5t-20 -113t20 -112.5t55.5 -92t84 -62.5t105.5 -23zM565 249l-14 -73q-2 -8 -9 -12t-20 -9q-13 -3 -41 -10.5t-62 -7.5q-48 0 -87 12t-66.5 37t-43 62t-15.5 87q0 31 11 65t37 62.5t68 47t104 18.5q37 0 59 -6t42 -12
q21 -7 21 -21v-70h-20q-4 15 -11.5 30t-19.5 27.5t-29.5 20t-41.5 7.5q-58 0 -85.5 -45.5t-28.5 -118.5q0 -38 5.5 -71t19 -57t36 -37.5t54.5 -13.5q42 0 71 24.5t46 63.5h20z" />
    <glyph glyph-name="ordfeminine" unicode="&#xaa;" horiz-adv-x="289" 
d="M65 500q0 -40 44 -40q11 0 23 3.5t20 11.5q0 8 -0.5 15.5t-0.5 15.5t0.5 16t0.5 16q-16 3 -34 3q-20 0 -36.5 -10.5t-16.5 -30.5zM152 604q0 41 -31 41q-22 0 -28 -12.5t-6 -26.5t1 -17q-24 5 -45 9t-42 7q2 20 12.5 32t26 19t33.5 9.5t36 2.5q21 0 42.5 -3.5t38.5 -11.5
t28 -21.5t11 -33.5q0 -22 -1.5 -50t-1.5 -44q0 -14 5 -24.5t22 -10.5q11 0 19.5 5.5t16.5 11.5l11 -11q-8 -6 -17.5 -14.5t-19.5 -17t-21 -14t-23 -5.5q-17 0 -32 10.5t-26 21.5q-24 -14 -51 -23t-55 -9t-51 16t-23 40q0 29 17 45t42.5 23.5t55.5 9.5t56 2v44z" />
    <glyph glyph-name="guillemotleft" unicode="&#xab;" horiz-adv-x="444" 
d="M205 312l-75 -119l73 -135l-19 -13l-126 102q-14 12 -27.5 21t-13.5 17q0 9 10.5 18t30.5 25l131 101zM371 312l-75 -119l73 -135l-19 -13l-126 102q-14 12 -27.5 21t-13.5 17q0 9 10.5 18t30.5 25l131 101z" />
    <glyph glyph-name="logicalnot" unicode="&#xac;" horiz-adv-x="600" 
d="M396 223h-298v76h374v-224h-76v148z" />
    <glyph glyph-name="registered" unicode="&#xae;" horiz-adv-x="800" 
d="M238 517h192q45 0 77 -23t32 -73q0 -34 -20.5 -61.5t-55.5 -38.5l56 -81q17 -23 33.5 -44.5t30.5 -36.5v-11h-82q-11 0 -22.5 15t-24 38t-27 52t-32.5 56h-31v-102q0 -13 0.5 -20.5t4.5 -11.5t13 -6t26 -3v-18h-170v18q17 1 25.5 3t13 6t5 11.5t0.5 20.5v250
q0 13 -0.5 20.5t-5 12t-13 6t-25.5 2.5v19zM364 333h30q17 0 28 7.5t17.5 19.5t9 27t2.5 30q0 43 -14.5 59.5t-40.5 16.5h-32v-160zM400 -20q-72 0 -134 26.5t-107 73t-70.5 109.5t-25.5 135q0 73 25.5 136t70.5 109.5t107 73.5t134 27t134 -27t107 -73.5t70.5 -109.5
t25.5 -136q0 -72 -25.5 -135t-70.5 -109.5t-107 -73t-134 -26.5zM400 34q57 0 105.5 23t84 62.5t55.5 92t20 112.5t-20 113t-55.5 93t-84 63t-105.5 23t-105.5 -23.5t-84 -63t-55.5 -92.5t-20 -113t20 -112.5t55.5 -92t84 -62.5t105.5 -23z" />
    <glyph glyph-name="macron" unicode="&#xaf;" horiz-adv-x="296" 
d="M-2 481v69h302v-69h-302z" />
    <glyph glyph-name="macron" unicode="&#x2c9;" horiz-adv-x="296" 
d="M-2 481v69h302v-69h-302z" />
    <glyph glyph-name="degree" unicode="&#xb0;" horiz-adv-x="400" 
d="M100 522q0 -38 23.5 -64t61.5 -26t61.5 26t23.5 64t-23.5 64t-61.5 26t-61.5 -26t-23.5 -64zM38 522q0 30 11.5 57t31.5 46.5t46.5 31t57.5 11.5t57.5 -11.5t46.5 -31t31.5 -46.5t11.5 -57q0 -31 -11.5 -57.5t-31.5 -46t-46.5 -31t-57.5 -11.5t-57.5 11.5t-46.5 31
t-31.5 46t-11.5 57.5z" />
    <glyph glyph-name="plusminus" unicode="&#xb1;" horiz-adv-x="600" 
d="M247 374h76v-94h149v-76h-149v-92h-76v92h-149v76h149v94zM98 76h374v-76h-374v76z" />
    <glyph glyph-name="twosuperior" unicode="&#xb2;" horiz-adv-x="311" 
d="M-13 267l-4 12v2q31 28 66 58.5t65 64.5t49.5 72.5t19.5 82.5q0 42 -19.5 63.5t-48.5 21.5q-25 0 -37.5 -14.5t-14.5 -30.5q11 -8 19.5 -22.5t8.5 -25.5q0 -17 -11.5 -28t-36.5 -11q-21 0 -34.5 12.5t-13.5 37.5q0 26 10.5 45.5t28.5 33t42 20.5t52 7q30 0 56.5 -6.5
t45.5 -20.5t30 -36.5t11 -54.5q0 -37 -19 -66.5t-47.5 -54.5t-61.5 -48t-60 -48h95q24 0 39.5 1.5t27.5 6.5t23 13.5t24 22.5l9 -9l-28 -50t-26 -51h-260z" />
    <glyph glyph-name="threesuperior" unicode="&#xb3;" horiz-adv-x="311" 
d="M42 661q28 -1 56 -1.5t56 -0.5q31 0 62.5 0.5t63.5 1.5l3 -12l-142 -154q8 0 13.5 1.5t10.5 1.5q63 0 92.5 -30t29.5 -82q0 -33 -14 -58t-38 -41.5t-55 -24.5t-65 -8q-26 0 -49 6t-40 17t-27 27t-10 36q0 18 14 29t32 11q20 0 33 -9.5t13 -26.5q0 -9 -3 -15t-6 -11
q4 -14 15 -28t38 -14q36 0 55 26.5t19 72.5q0 42 -15.5 68.5t-46.5 26.5q-14 0 -26 -7t-23 -17l-18 12l119 137h-84q-17 0 -27.5 -2t-18 -7.5t-14 -15.5t-14.5 -27h-16z" />
    <glyph glyph-name="acute" unicode="&#xb4;" horiz-adv-x="296" 
d="M74 444l115 139q20 23 36.5 35t33.5 12q20 0 33.5 -13t13.5 -28q0 -14 -5 -25t-19 -20l-150 -100h-58z" />
    <glyph glyph-name="mu" unicode="&#xb5;" horiz-adv-x="537" 
d="M445 70q0 -26 17 -38t55 -12v-20q-54 -2 -103.5 -4.5t-86.5 -11.5v59q-35 -32 -60 -45.5t-45 -13.5q-17 0 -28 3t-19 9v-228q-46 0 -91 -1t-91 -3v20q22 0 35 7t19.5 18t8 24t1.5 26v445q0 50 -66 50v20q49 2 98 4.5t86 11.5v-267q0 -35 18 -54t49 -19q28 0 48 9t37 25
v220q0 26 -16.5 38t-53.5 12v20q52 2 101.5 4.5t86.5 11.5v-320z" />
    <glyph glyph-name="mu" unicode="&#x3bc;" horiz-adv-x="537" 
d="M445 70q0 -26 17 -38t55 -12v-20q-54 -2 -103.5 -4.5t-86.5 -11.5v59q-35 -32 -60 -45.5t-45 -13.5q-17 0 -28 3t-19 9v-228q-46 0 -91 -1t-91 -3v20q22 0 35 7t19.5 18t8 24t1.5 26v445q0 50 -66 50v20q49 2 98 4.5t86 11.5v-267q0 -35 18 -54t49 -19q28 0 48 9t37 25
v220q0 26 -16.5 38t-53.5 12v20q52 2 101.5 4.5t86.5 11.5v-320z" />
    <glyph glyph-name="paragraph" unicode="&#xb6;" horiz-adv-x="600" 
d="M528 650v-24q-27 -3 -42.5 -6t-23.5 -9t-10 -16.5t-2 -28.5v-778h-82v832h-59v-832h-82v451q-45 0 -79 15.5t-56.5 43.5t-34 67.5t-11.5 86.5q0 104 48.5 151t160.5 47h273z" />
    <glyph glyph-name="periodcentered" unicode="&#xb7;" horiz-adv-x="260" 
d="M117 264q32 0 54.5 -22t22.5 -55t-22.5 -55t-54.5 -22t-54.5 22t-22.5 55t22.5 55t54.5 22z" />
    <glyph glyph-name="periodcentered" unicode="&#x22c5;" horiz-adv-x="260" 
d="M117 264q32 0 54.5 -22t22.5 -55t-22.5 -55t-54.5 -22t-54.5 22t-22.5 55t22.5 55t54.5 22z" />
    <glyph glyph-name="cedilla" unicode="&#xb8;" horiz-adv-x="296" 
d="M32 -168q14 -7 29 -11.5t32 -4.5q29 0 44.5 13t15.5 27q0 21 -14.5 31.5t-32.5 10.5q-7 0 -14.5 -2.5t-15.5 -4.5l-10 8l43 98h39l-28 -65q10 2 20 3t20 1q39 0 61 -18.5t22 -51.5q0 -44 -35.5 -66t-89.5 -22q-26 0 -52 3t-50 14z" />
    <glyph glyph-name="onesuperior" unicode="&#xb9;" horiz-adv-x="311" 
d="M32 279q24 0 38.5 2t22.5 10t10.5 24.5t2.5 45.5v201q0 20 -2 32.5t-9 19.5t-20.5 9.5t-35.5 2.5v14q74 8 147 33v-312q0 -29 2.5 -45.5t10 -24.5t21 -10t35.5 -2v-14q-29 1 -56.5 1.5t-54.5 0.5q-28 0 -55.5 -0.5t-56.5 -1.5v14z" />
    <glyph glyph-name="ordmasculine" unicode="&#xba;" horiz-adv-x="311" 
d="M80 558q0 -57 21.5 -84t49.5 -27q27 0 43 22t16 66q0 57 -21.5 83.5t-50.5 26.5q-26 0 -42 -22t-16 -65zM145 668q29 0 56.5 -8t48.5 -23.5t34 -38.5t13 -52t-13 -51.5t-34 -38.5t-48.5 -24t-56.5 -8t-56.5 8t-48.5 24t-34 38.5t-13 51.5t13 52t34 38.5t48.5 23.5t56.5 8
z" />
    <glyph glyph-name="guillemotright" unicode="&#xbb;" horiz-adv-x="444" 
d="M239 62l75 119l-73 135l19 13l126 -102q14 -12 27.5 -21t13.5 -17q0 -9 -10.5 -18t-30.5 -25l-131 -101zM73 62l75 119l-73 135l19 13l126 -102q14 -12 27.5 -21t13.5 -17q0 -9 -10.5 -18t-30.5 -25l-131 -101z" />
    <glyph glyph-name="onequarter" unicode="&#xbc;" horiz-adv-x="778" 
d="M606 668h62l-439 -686h-62zM655 166v117l80 67v-350h-80v106h-215l-6 22q47 44 91 87.5t80 82.5t62.5 70t38.5 48h36v-14q-61 -58 -120 -118.5t-117 -117.5h150zM32 279q24 0 38.5 2t22.5 10t10.5 24.5t2.5 45.5v201q0 20 -2 32.5t-9 19.5t-20.5 9.5t-35.5 2.5v14
q74 8 147 33v-312q0 -29 2.5 -45.5t10 -24.5t21 -10t35.5 -2v-14q-29 1 -56.5 1.5t-54.5 0.5q-28 0 -55.5 -0.5t-56.5 -1.5v14z" />
    <glyph glyph-name="onehalf" unicode="&#xbd;" horiz-adv-x="778" 
d="M563 668h62l-441 -686h-62zM454 0l-4 12v2q31 28 66 58.5t65 64.5t49.5 72.5t19.5 82.5q0 42 -19.5 63.5t-48.5 21.5q-25 0 -37.5 -14.5t-14.5 -30.5q11 -8 19.5 -22.5t8.5 -25.5q0 -17 -11.5 -28t-36.5 -11q-21 0 -34.5 12.5t-13.5 37.5q0 26 10.5 45.5t28.5 33t42 20.5
t52 7q30 0 56.5 -6.5t45.5 -20.5t30 -36.5t11 -54.5q0 -37 -19 -66.5t-47.5 -54.5t-61.5 -48t-60 -48h95q24 0 39.5 1.5t27.5 6.5t23 13.5t24 22.5l9 -9l-28 -50t-26 -51h-260zM32 279q24 0 38.5 2t22.5 10t10.5 24.5t2.5 45.5v201q0 20 -2 32.5t-9 19.5t-20.5 9.5
t-35.5 2.5v14q74 8 147 33v-312q0 -29 2.5 -45.5t10 -24.5t21 -10t35.5 -2v-14q-29 1 -56.5 1.5t-54.5 0.5q-28 0 -55.5 -0.5t-56.5 -1.5v14z" />
    <glyph glyph-name="threequarters" unicode="&#xbe;" horiz-adv-x="778" 
d="M596 668h62l-441 -686h-62zM42 661q28 -1 56 -1.5t56 -0.5q31 0 62.5 0.5t63.5 1.5l3 -12l-142 -154q8 0 13.5 1.5t10.5 1.5q63 0 92.5 -30t29.5 -82q0 -33 -14 -58t-38 -41.5t-55 -24.5t-65 -8q-26 0 -49 6t-40 17t-27 27t-10 36q0 18 14 29t32 11q20 0 33 -9.5
t13 -26.5q0 -9 -3 -15t-6 -11q4 -14 15 -28t38 -14q36 0 55 26.5t19 72.5q0 42 -15.5 68.5t-46.5 26.5q-14 0 -26 -7t-23 -17l-18 12l119 137h-84q-17 0 -27.5 -2t-18 -7.5t-14 -15.5t-14.5 -27h-16zM655 166v117l80 67v-350h-80v106h-215l-6 22q47 44 91 87.5t80 82.5
t62.5 70t38.5 48h36v-14q-61 -58 -120 -118.5t-117 -117.5h150z" />
    <glyph glyph-name="questiondown" unicode="&#xbf;" horiz-adv-x="444" 
d="M267 236q6 -28 6 -60q0 -42 -16.5 -78.5t-36 -71t-36 -70t-16.5 -75.5q0 -15 3.5 -32.5t11.5 -31.5t21 -23.5t31 -9.5q17 0 28 6.5t18.5 17t10.5 23t3 24.5q0 40 -5 65q28 5 55.5 13t53.5 18q6 -18 6 -38q0 -44 -15 -74.5t-40.5 -50.5t-60.5 -29t-76 -9q-33 0 -64 10
t-55.5 28.5t-39 45.5t-14.5 61q0 41 14 69.5t35 51t45.5 42.5t47 44.5t39 56t20.5 77.5h26zM250 266q-32 0 -54.5 22t-22.5 55t22.5 55t54.5 22t54.5 -22t22.5 -55t-22.5 -55t-54.5 -22z" />
    <glyph glyph-name="Agrave" unicode="&#xc0;" 
d="M389 318l-82 234h-2l-87 -234h171zM-24 20q28 3 46.5 11.5t31 22.5t22 32.5t19.5 42.5l196 457l-18 48q32 6 63 14.5t60 21.5l217 -589q12 -32 42 -46.5t61 -14.5v-24q-19 1 -43 2t-48 1.5t-48 0.5h-42q-42 0 -83.5 -1t-83.5 -3v24q52 4 77 17t25 39q0 9 -3.5 23t-9 28.5
l-11 29t-9.5 24.5l-34 99h-199l-51 -141q-5 -14 -10.5 -27t-5.5 -33q0 -12 8.5 -22t22 -17.5t29 -12.5t28.5 -7v-24q-32 2 -64.5 3t-64.5 1q-30 0 -60 -1t-60 -3v24zM380 700l-150 100q-14 9 -19 20t-5 25q0 15 13.5 28t33.5 13q17 0 33.5 -12t36.5 -35l115 -139h-58z" />
    <glyph glyph-name="Aacute" unicode="&#xc1;" 
d="M389 318l-82 234h-2l-87 -234h171zM-24 20q28 3 46.5 11.5t31 22.5t22 32.5t19.5 42.5l196 457l-18 48q32 6 63 14.5t60 21.5l217 -589q12 -32 42 -46.5t61 -14.5v-24q-19 1 -43 2t-48 1.5t-48 0.5h-42q-42 0 -83.5 -1t-83.5 -3v24q52 4 77 17t25 39q0 9 -3.5 23t-9 28.5
l-11 29t-9.5 24.5l-34 99h-199l-51 -141q-5 -14 -10.5 -27t-5.5 -33q0 -12 8.5 -22t22 -17.5t29 -12.5t28.5 -7v-24q-32 2 -64.5 3t-64.5 1q-30 0 -60 -1t-60 -3v24zM278 700l115 139q20 23 36.5 35t33.5 12q20 0 33.5 -13t13.5 -28q0 -14 -5 -25t-19 -20l-150 -100h-58z
" />
    <glyph glyph-name="Acircumflex" unicode="&#xc2;" 
d="M389 318l-82 234h-2l-87 -234h171zM-24 20q28 3 46.5 11.5t31 22.5t22 32.5t19.5 42.5l196 457l-18 48q32 6 63 14.5t60 21.5l217 -589q12 -32 42 -46.5t61 -14.5v-24q-19 1 -43 2t-48 1.5t-48 0.5h-42q-42 0 -83.5 -1t-83.5 -3v24q52 4 77 17t25 39q0 9 -3.5 23t-9 28.5
l-11 29t-9.5 24.5l-34 99h-199l-51 -141q-5 -14 -10.5 -27t-5.5 -33q0 -12 8.5 -22t22 -17.5t29 -12.5t28.5 -7v-24q-32 2 -64.5 3t-64.5 1q-30 0 -60 -1t-60 -3v24zM398 876l117 -176h-55l-108 108l-107 -108h-54l115 176h92z" />
    <glyph glyph-name="Atilde" unicode="&#xc3;" 
d="M389 318l-82 234h-2l-87 -234h171zM-24 20q28 3 46.5 11.5t31 22.5t22 32.5t19.5 42.5l196 457l-18 48q32 6 63 14.5t60 21.5l217 -589q12 -32 42 -46.5t61 -14.5v-24q-19 1 -43 2t-48 1.5t-48 0.5h-42q-42 0 -83.5 -1t-83.5 -3v24q52 4 77 17t25 39q0 9 -3.5 23t-9 28.5
l-11 29t-9.5 24.5l-34 99h-199l-51 -141q-5 -14 -10.5 -27t-5.5 -33q0 -12 8.5 -22t22 -17.5t29 -12.5t28.5 -7v-24q-32 2 -64.5 3t-64.5 1q-30 0 -60 -1t-60 -3v24zM184 720q4 24 11.5 47t20 40.5t32 28t47.5 10.5q15 0 33.5 -8t37 -17t35.5 -17t29 -8q23 0 33.5 16
t17.5 34h39q-3 -19 -11 -41t-21 -41t-30.5 -31.5t-39.5 -12.5q-24 0 -43.5 8t-38 17t-36.5 17t-38 8q-8 0 -15 -5t-12 -12.5t-8.5 -16.5t-5.5 -16h-37z" />
    <glyph glyph-name="Adieresis" unicode="&#xc4;" 
d="M389 318l-82 234h-2l-87 -234h171zM-24 20q28 3 46.5 11.5t31 22.5t22 32.5t19.5 42.5l196 457l-18 48q32 6 63 14.5t60 21.5l217 -589q12 -32 42 -46.5t61 -14.5v-24q-19 1 -43 2t-48 1.5t-48 0.5h-42q-42 0 -83.5 -1t-83.5 -3v24q52 4 77 17t25 39q0 9 -3.5 23t-9 28.5
l-11 29t-9.5 24.5l-34 99h-199l-51 -141q-5 -14 -10.5 -27t-5.5 -33q0 -12 8.5 -22t22 -17.5t29 -12.5t28.5 -7v-24q-32 2 -64.5 3t-64.5 1q-30 0 -60 -1t-60 -3v24zM451 838q27 0 45.5 -18.5t18.5 -45.5t-18.5 -45.5t-45.5 -18.5t-45.5 18.5t-18.5 45.5t18.5 45.5
t45.5 18.5zM254 838q27 0 45.5 -18.5t18.5 -45.5t-18.5 -45.5t-45.5 -18.5t-45.5 18.5t-18.5 45.5t18.5 45.5t45.5 18.5z" />
    <glyph glyph-name="Aring" unicode="&#xc5;" 
d="M389 318l-82 234h-2l-87 -234h171zM-24 20q28 3 46.5 11.5t31 22.5t22 32.5t19.5 42.5l196 457l-18 48q32 6 63 14.5t60 21.5l217 -589q12 -32 42 -46.5t61 -14.5v-24q-19 1 -43 2t-48 1.5t-48 0.5h-42q-42 0 -83.5 -1t-83.5 -3v24q52 4 77 17t25 39q0 9 -3.5 23t-9 28.5
l-11 29t-9.5 24.5l-34 99h-199l-51 -141q-5 -14 -10.5 -27t-5.5 -33q0 -12 8.5 -22t22 -17.5t29 -12.5t28.5 -7v-24q-32 2 -64.5 3t-64.5 1q-30 0 -60 -1t-60 -3v24zM352 702q-45 0 -75.5 30.5t-30.5 75.5t30.5 75.5t75.5 30.5t75.5 -30.5t30.5 -75.5t-30.5 -75.5
t-75.5 -30.5zM352 750q26 0 42 17t16 41t-16 41t-42 17t-42 -17t-16 -41t16 -41t42 -17z" />
    <glyph glyph-name="AE" unicode="&#xc6;" horiz-adv-x="944" 
d="M403 366v252h-16l-137 -252h153zM860 457q-11 54 -33.5 87.5t-54 51.5t-69.5 24t-81 6h-85v-262q48 0 79.5 4t53.5 17.5t35.5 39.5t25.5 69h29q-7 -38 -11 -77t-4 -78q0 -29 2.5 -67.5t7.5 -67.5h-26q-11 44 -24.5 69.5t-35 39t-53 17.5t-79.5 4v-289q46 -11 89 -11
q56 0 100 14.5t80 41t66.5 62t59.5 77.5l17 -16q-27 -53 -49 -106.5t-38 -110.5q-71 2 -141 3t-140 1q-71 0 -141 -1t-141 -3v24q33 2 53 8t31.5 17t15.5 27.5t4 39.5v216h-170q-6 -16 -24 -50t-37.5 -71.5t-34.5 -70t-15 -46.5q0 -18 8 -30.5t21 -21t29.5 -12.5t32.5 -6
v-24q-34 2 -67.5 3t-67.5 1q-35 0 -68.5 -1t-68.5 -3v24q30 6 50.5 16t36.5 24.5t29 34.5t27 45l196 353q11 20 18.5 37.5t7.5 35.5q0 17 -10 29.5t-26.5 20.5t-37 12t-40.5 4v24h688q-2 -15 -3 -31t-1 -33q0 -32 3 -65t8 -65z" />
    <glyph glyph-name="Ccedilla" unicode="&#xc7;" horiz-adv-x="722" 
d="M632 391q-7 46 -28 88.5t-52 75t-70.5 52t-85.5 19.5q-60 0 -101 -27t-66 -68.5t-35.5 -92.5t-10.5 -99q0 -62 17 -114.5t50 -91t82.5 -60t115.5 -21.5q47 0 85.5 14t69 36t54 49.5t41.5 54.5l24 -25q-57 -97 -141 -149t-197 -52q-75 0 -138 24.5t-109 69.5t-72 108.5
t-26 142.5q0 78 27 141.5t75 108.5t115 70t147 25q28 0 66 -5.5t73 -12.5q36 -7 63 -12.5t32 -5.5q8 0 11 1q0 -20 -1 -38.5t-1 -38.5q0 -42 3 -83.5t8 -83.5h-25zM280 -168q14 -7 29 -11.5t32 -4.5q29 0 44.5 13t15.5 27q0 21 -14.5 31.5t-32.5 10.5q-7 0 -14.5 -2.5
t-15.5 -4.5l-10 8l43 98h39l-28 -65q10 2 20 3t20 1q39 0 61 -18.5t22 -51.5q0 -44 -35.5 -66t-89.5 -22q-26 0 -52 3t-50 14z" />
    <glyph glyph-name="Egrave" unicode="&#xc8;" 
d="M17 20q34 2 54.5 8.5t31.5 20t14.5 34.5t3.5 51v380q0 28 -3.5 49t-14.5 35t-31.5 21.5t-54.5 8.5v28q51 -2 102.5 -4t102.5 -2q97 0 193 2t196 4q-1 -18 -1 -36v-35q0 -31 1 -61t7 -55l-22 -4q-24 76 -76.5 114.5t-152.5 38.5h-112v-243h52q26 0 51 6.5t46.5 21
t37.5 38.5t24 59h20q-1 -35 -2.5 -71t-1.5 -71q0 -36 1.5 -71.5t2.5 -71.5h-20q-8 37 -23 62t-35 40t-45.5 21.5t-55.5 6.5h-52v-297q24 -7 53.5 -10.5t65.5 -3.5q98 0 177 46.5t134 144.5l19 -14q-25 -53 -47.5 -106t-39.5 -109q-78 2 -155 3t-155 1h-93q-44 0 -81.5 -0.5
t-67 -1.5t-48.5 -2v24zM380 700l-150 100q-14 9 -19 20t-5 25q0 15 13.5 28t33.5 13q17 0 33.5 -12t36.5 -35l115 -139h-58z" />
    <glyph glyph-name="Eacute" unicode="&#xc9;" 
d="M17 20q34 2 54.5 8.5t31.5 20t14.5 34.5t3.5 51v380q0 28 -3.5 49t-14.5 35t-31.5 21.5t-54.5 8.5v28q51 -2 102.5 -4t102.5 -2q97 0 193 2t196 4q-1 -18 -1 -36v-35q0 -31 1 -61t7 -55l-22 -4q-24 76 -76.5 114.5t-152.5 38.5h-112v-243h52q26 0 51 6.5t46.5 21
t37.5 38.5t24 59h20q-1 -35 -2.5 -71t-1.5 -71q0 -36 1.5 -71.5t2.5 -71.5h-20q-8 37 -23 62t-35 40t-45.5 21.5t-55.5 6.5h-52v-297q24 -7 53.5 -10.5t65.5 -3.5q98 0 177 46.5t134 144.5l19 -14q-25 -53 -47.5 -106t-39.5 -109q-78 2 -155 3t-155 1h-93q-44 0 -81.5 -0.5
t-67 -1.5t-48.5 -2v24zM278 700l115 139q20 23 36.5 35t33.5 12q20 0 33.5 -13t13.5 -28q0 -14 -5 -25t-19 -20l-150 -100h-58z" />
    <glyph glyph-name="Ecircumflex" unicode="&#xca;" 
d="M17 20q34 2 54.5 8.5t31.5 20t14.5 34.5t3.5 51v380q0 28 -3.5 49t-14.5 35t-31.5 21.5t-54.5 8.5v28q51 -2 102.5 -4t102.5 -2q97 0 193 2t196 4q-1 -18 -1 -36v-35q0 -31 1 -61t7 -55l-22 -4q-24 76 -76.5 114.5t-152.5 38.5h-112v-243h52q26 0 51 6.5t46.5 21
t37.5 38.5t24 59h20q-1 -35 -2.5 -71t-1.5 -71q0 -36 1.5 -71.5t2.5 -71.5h-20q-8 37 -23 62t-35 40t-45.5 21.5t-55.5 6.5h-52v-297q24 -7 53.5 -10.5t65.5 -3.5q98 0 177 46.5t134 144.5l19 -14q-25 -53 -47.5 -106t-39.5 -109q-78 2 -155 3t-155 1h-93q-44 0 -81.5 -0.5
t-67 -1.5t-48.5 -2v24zM398 876l117 -176h-55l-108 108l-107 -108h-54l115 176h92z" />
    <glyph glyph-name="Edieresis" unicode="&#xcb;" 
d="M17 20q34 2 54.5 8.5t31.5 20t14.5 34.5t3.5 51v380q0 28 -3.5 49t-14.5 35t-31.5 21.5t-54.5 8.5v28q51 -2 102.5 -4t102.5 -2q97 0 193 2t196 4q-1 -18 -1 -36v-35q0 -31 1 -61t7 -55l-22 -4q-24 76 -76.5 114.5t-152.5 38.5h-112v-243h52q26 0 51 6.5t46.5 21
t37.5 38.5t24 59h20q-1 -35 -2.5 -71t-1.5 -71q0 -36 1.5 -71.5t2.5 -71.5h-20q-8 37 -23 62t-35 40t-45.5 21.5t-55.5 6.5h-52v-297q24 -7 53.5 -10.5t65.5 -3.5q98 0 177 46.5t134 144.5l19 -14q-25 -53 -47.5 -106t-39.5 -109q-78 2 -155 3t-155 1h-93q-44 0 -81.5 -0.5
t-67 -1.5t-48.5 -2v24zM451 838q27 0 45.5 -18.5t18.5 -45.5t-18.5 -45.5t-45.5 -18.5t-45.5 18.5t-18.5 45.5t18.5 45.5t45.5 18.5zM254 838q27 0 45.5 -18.5t18.5 -45.5t-18.5 -45.5t-45.5 -18.5t-45.5 18.5t-18.5 45.5t18.5 45.5t45.5 18.5z" />
    <glyph glyph-name="Igrave" unicode="&#xcc;" horiz-adv-x="407" 
d="M25 656q46 -2 91 -4t91 -2q44 0 86.5 2t86.5 4v-24q-34 -1 -56.5 -7.5t-35 -19t-17.5 -33t-5 -50.5v-424q0 -39 25 -57t86 -21l-2 -24q-44 2 -87 3t-87 1q-45 0 -90 -1t-90 -3v24q61 3 86 21t25 57v424q0 59 -22.5 83.5t-84.5 26.5v24zM232 700l-150 100q-14 9 -19 20
t-5 25q0 15 13.5 28t33.5 13q17 0 33.5 -12t36.5 -35l115 -139h-58z" />
    <glyph glyph-name="Iacute" unicode="&#xcd;" horiz-adv-x="407" 
d="M25 656q46 -2 91 -4t91 -2q44 0 86.5 2t86.5 4v-24q-34 -1 -56.5 -7.5t-35 -19t-17.5 -33t-5 -50.5v-424q0 -39 25 -57t86 -21l-2 -24q-44 2 -87 3t-87 1q-45 0 -90 -1t-90 -3v24q61 3 86 21t25 57v424q0 59 -22.5 83.5t-84.5 26.5v24zM130 700l115 139q20 23 36.5 35
t33.5 12q20 0 33.5 -13t13.5 -28q0 -14 -5 -25t-19 -20l-150 -100h-58z" />
    <glyph glyph-name="Icircumflex" unicode="&#xce;" horiz-adv-x="407" 
d="M25 656q46 -2 91 -4t91 -2q44 0 86.5 2t86.5 4v-24q-34 -1 -56.5 -7.5t-35 -19t-17.5 -33t-5 -50.5v-424q0 -39 25 -57t86 -21l-2 -24q-44 2 -87 3t-87 1q-45 0 -90 -1t-90 -3v24q61 3 86 21t25 57v424q0 59 -22.5 83.5t-84.5 26.5v24zM250 876l117 -176h-55l-108 108
l-107 -108h-54l115 176h92z" />
    <glyph glyph-name="Idieresis" unicode="&#xcf;" horiz-adv-x="407" 
d="M25 656q46 -2 91 -4t91 -2q44 0 86.5 2t86.5 4v-24q-34 -1 -56.5 -7.5t-35 -19t-17.5 -33t-5 -50.5v-424q0 -39 25 -57t86 -21l-2 -24q-44 2 -87 3t-87 1q-45 0 -90 -1t-90 -3v24q61 3 86 21t25 57v424q0 59 -22.5 83.5t-84.5 26.5v24zM303 838q27 0 45.5 -18.5
t18.5 -45.5t-18.5 -45.5t-45.5 -18.5t-45.5 18.5t-18.5 45.5t18.5 45.5t45.5 18.5zM106 838q27 0 45.5 -18.5t18.5 -45.5t-18.5 -45.5t-45.5 -18.5t-45.5 18.5t-18.5 45.5t18.5 45.5t45.5 18.5z" />
    <glyph glyph-name="Eth" unicode="&#xd0;" horiz-adv-x="852" 
d="M21 24q36 3 57 9t31.5 19t13.5 34.5t3 55.5v192h-102v42h102v141q0 34 -3 55.5t-13.5 34.5t-32 19t-58.5 9v24q32 -3 63.5 -6t63.5 -3q62 0 129 5t159 5q68 0 135.5 -22.5t120.5 -67.5t86 -111.5t33 -154.5q0 -81 -28.5 -140t-77 -97t-112 -56.5t-134.5 -18.5
q-41 0 -71 1t-59.5 2.5t-62.5 3t-80 1.5q-53 0 -92 -1t-71 -3v28zM260 376h190v-42h-190v-256q0 -14 12 -23.5t32 -15.5t46.5 -8.5t55.5 -2.5q59 0 107 17.5t82 53t52 89.5t18 127q0 67 -19.5 123.5t-56.5 98t-90.5 64.5t-121.5 23q-30 0 -59 -4t-58 -12v-232z" />
    <glyph glyph-name="Ntilde" unicode="&#xd1;" horiz-adv-x="796" 
d="M0 20q47 7 74 15t41 24.5t18 43.5t4 72l4 389q-13 15 -29.5 26t-34.5 18.5t-37 13t-38 10.5v24q26 -2 52.5 -4t52.5 -2q69 0 136 6q100 -124 202.5 -242t197.5 -245h2v81q0 49 -1.5 101.5t-4.5 102t-9 83.5q-4 26 -13.5 42.5t-24.5 27t-34.5 16t-43.5 9.5v24
q35 -2 70.5 -4t70.5 -2q70 0 139 6v-24q-39 -2 -62 -11t-34.5 -30t-15 -56.5t-3.5 -90.5v-459h-59q-30 46 -68 98t-79.5 104.5t-84 103.5t-81.5 96t-72 82.5t-56 61.5v-339q0 -51 4 -81.5t17.5 -48.5t39.5 -26.5t70 -15.5v-24q-37 2 -73 3t-73 1q-42 0 -82 -1t-82 -3v24z
M236 720q4 24 11.5 47t20 40.5t32 28t47.5 10.5q15 0 33.5 -8t37 -17t35.5 -17t29 -8q23 0 33.5 16t17.5 34h39q-3 -19 -11 -41t-21 -41t-30.5 -31.5t-39.5 -12.5q-24 0 -43.5 8t-38 17t-36.5 17t-38 8q-8 0 -15 -5t-12 -12.5t-8.5 -16.5t-5.5 -16h-37z" />
    <glyph glyph-name="Ograve" unicode="&#xd2;" horiz-adv-x="852" 
d="M422 670q85 0 155.5 -23.5t121.5 -67.5t79 -108.5t28 -145.5t-28 -145.5t-79 -108.5t-121.5 -67.5t-155.5 -23.5t-155.5 23.5t-121.5 67.5t-79 108.5t-28 145.5t28 145.5t79 108.5t121.5 67.5t155.5 23.5zM422 634q-62 0 -107.5 -25t-75 -68t-43.5 -98.5t-14 -117.5
q0 -61 14 -117t43.5 -99t75 -68t107.5 -25t107.5 25t75 68t43.5 99t14 117q0 62 -14 117.5t-43.5 98.5t-75 68t-107.5 25zM454 700l-150 100q-14 9 -19 20t-5 25q0 15 13.5 28t33.5 13q17 0 33.5 -12t36.5 -35l115 -139h-58z" />
    <glyph glyph-name="Oacute" unicode="&#xd3;" horiz-adv-x="852" 
d="M422 670q85 0 155.5 -23.5t121.5 -67.5t79 -108.5t28 -145.5t-28 -145.5t-79 -108.5t-121.5 -67.5t-155.5 -23.5t-155.5 23.5t-121.5 67.5t-79 108.5t-28 145.5t28 145.5t79 108.5t121.5 67.5t155.5 23.5zM422 634q-62 0 -107.5 -25t-75 -68t-43.5 -98.5t-14 -117.5
q0 -61 14 -117t43.5 -99t75 -68t107.5 -25t107.5 25t75 68t43.5 99t14 117q0 62 -14 117.5t-43.5 98.5t-75 68t-107.5 25zM352 700l115 139q20 23 36.5 35t33.5 12q20 0 33.5 -13t13.5 -28q0 -14 -5 -25t-19 -20l-150 -100h-58z" />
    <glyph glyph-name="Ocircumflex" unicode="&#xd4;" horiz-adv-x="852" 
d="M422 670q85 0 155.5 -23.5t121.5 -67.5t79 -108.5t28 -145.5t-28 -145.5t-79 -108.5t-121.5 -67.5t-155.5 -23.5t-155.5 23.5t-121.5 67.5t-79 108.5t-28 145.5t28 145.5t79 108.5t121.5 67.5t155.5 23.5zM422 634q-62 0 -107.5 -25t-75 -68t-43.5 -98.5t-14 -117.5
q0 -61 14 -117t43.5 -99t75 -68t107.5 -25t107.5 25t75 68t43.5 99t14 117q0 62 -14 117.5t-43.5 98.5t-75 68t-107.5 25zM472 876l117 -176h-55l-108 108l-107 -108h-54l115 176h92z" />
    <glyph glyph-name="Otilde" unicode="&#xd5;" horiz-adv-x="852" 
d="M422 670q85 0 155.5 -23.5t121.5 -67.5t79 -108.5t28 -145.5t-28 -145.5t-79 -108.5t-121.5 -67.5t-155.5 -23.5t-155.5 23.5t-121.5 67.5t-79 108.5t-28 145.5t28 145.5t79 108.5t121.5 67.5t155.5 23.5zM422 634q-62 0 -107.5 -25t-75 -68t-43.5 -98.5t-14 -117.5
q0 -61 14 -117t43.5 -99t75 -68t107.5 -25t107.5 25t75 68t43.5 99t14 117q0 62 -14 117.5t-43.5 98.5t-75 68t-107.5 25zM258 720q4 24 11.5 47t20 40.5t32 28t47.5 10.5q15 0 33.5 -8t37 -17t35.5 -17t29 -8q23 0 33.5 16t17.5 34h39q-3 -19 -11 -41t-21 -41t-30.5 -31.5
t-39.5 -12.5q-24 0 -43.5 8t-38 17t-36.5 17t-38 8q-8 0 -15 -5t-12 -12.5t-8.5 -16.5t-5.5 -16h-37z" />
    <glyph glyph-name="Odieresis" unicode="&#xd6;" horiz-adv-x="852" 
d="M422 670q85 0 155.5 -23.5t121.5 -67.5t79 -108.5t28 -145.5t-28 -145.5t-79 -108.5t-121.5 -67.5t-155.5 -23.5t-155.5 23.5t-121.5 67.5t-79 108.5t-28 145.5t28 145.5t79 108.5t121.5 67.5t155.5 23.5zM422 634q-62 0 -107.5 -25t-75 -68t-43.5 -98.5t-14 -117.5
q0 -61 14 -117t43.5 -99t75 -68t107.5 -25t107.5 25t75 68t43.5 99t14 117q0 62 -14 117.5t-43.5 98.5t-75 68t-107.5 25zM525 838q27 0 45.5 -18.5t18.5 -45.5t-18.5 -45.5t-45.5 -18.5t-45.5 18.5t-18.5 45.5t18.5 45.5t45.5 18.5zM328 838q27 0 45.5 -18.5t18.5 -45.5
t-18.5 -45.5t-45.5 -18.5t-45.5 18.5t-18.5 45.5t18.5 45.5t45.5 18.5z" />
    <glyph glyph-name="multiply" unicode="&#xd7;" horiz-adv-x="600" 
d="M285 134l-133 -134l-54 54l133 133l-133 133l54 54l133 -134l133 134l54 -54l-133 -133l133 -133l-54 -54z" />
    <glyph glyph-name="Oslash" unicode="&#xd8;" horiz-adv-x="852" 
d="M585 564q-28 32 -68.5 51t-94.5 19q-62 0 -107.5 -25t-75 -68t-43.5 -98.5t-14 -117.5q0 -57 11.5 -108t36.5 -91zM255 91q29 -35 70 -55t97 -20q62 0 107.5 25t75 68t43.5 99t14 117q0 58 -12.5 110t-38.5 94zM718 728l32 -28l-80 -99q64 -45 100 -114t36 -162
q0 -81 -28 -145.5t-79 -108.5t-121.5 -67.5t-155.5 -23.5q-127 0 -216 50l-100 -124l-32 28l96 118q-63 45 -97.5 113.5t-34.5 159.5q0 81 28 145.5t79 108.5t121.5 67.5t155.5 23.5q122 0 211 -47z" />
    <glyph glyph-name="Ugrave" unicode="&#xd9;" horiz-adv-x="796" 
d="M7 656q87 -6 175 -6q89 0 177 6l-3 -24q-37 -2 -58.5 -8t-32 -18.5t-13.5 -34t-3 -55.5v-332q0 -27 10.5 -53.5t33 -47.5t58 -34t85.5 -13q60 0 99.5 18.5t62 45.5t31.5 59t9 59v246q0 50 -5 82t-18 51t-35 27t-57 8v24q23 -2 57.5 -4t72.5 -2q31 0 61.5 2t60.5 4v-24
q-33 -2 -51.5 -8t-28.5 -18.5t-12.5 -34t-2.5 -55.5v-274q0 -125 -70.5 -193.5t-197.5 -68.5q-76 0 -131 18.5t-91 48.5t-53.5 67t-17.5 74v328q0 27 -3 47.5t-14 35t-33.5 23t-61.5 10.5v24zM432 700l-150 100q-14 9 -19 20t-5 25q0 15 13.5 28t33.5 13q17 0 33.5 -12
t36.5 -35l115 -139h-58z" />
    <glyph glyph-name="Uacute" unicode="&#xda;" horiz-adv-x="796" 
d="M7 656q87 -6 175 -6q89 0 177 6l-3 -24q-37 -2 -58.5 -8t-32 -18.5t-13.5 -34t-3 -55.5v-332q0 -27 10.5 -53.5t33 -47.5t58 -34t85.5 -13q60 0 99.5 18.5t62 45.5t31.5 59t9 59v246q0 50 -5 82t-18 51t-35 27t-57 8v24q23 -2 57.5 -4t72.5 -2q31 0 61.5 2t60.5 4v-24
q-33 -2 -51.5 -8t-28.5 -18.5t-12.5 -34t-2.5 -55.5v-274q0 -125 -70.5 -193.5t-197.5 -68.5q-76 0 -131 18.5t-91 48.5t-53.5 67t-17.5 74v328q0 27 -3 47.5t-14 35t-33.5 23t-61.5 10.5v24zM330 700l115 139q20 23 36.5 35t33.5 12q20 0 33.5 -13t13.5 -28q0 -14 -5 -25
t-19 -20l-150 -100h-58z" />
    <glyph glyph-name="Ucircumflex" unicode="&#xdb;" horiz-adv-x="796" 
d="M7 656q87 -6 175 -6q89 0 177 6l-3 -24q-37 -2 -58.5 -8t-32 -18.5t-13.5 -34t-3 -55.5v-332q0 -27 10.5 -53.5t33 -47.5t58 -34t85.5 -13q60 0 99.5 18.5t62 45.5t31.5 59t9 59v246q0 50 -5 82t-18 51t-35 27t-57 8v24q23 -2 57.5 -4t72.5 -2q31 0 61.5 2t60.5 4v-24
q-33 -2 -51.5 -8t-28.5 -18.5t-12.5 -34t-2.5 -55.5v-274q0 -125 -70.5 -193.5t-197.5 -68.5q-76 0 -131 18.5t-91 48.5t-53.5 67t-17.5 74v328q0 27 -3 47.5t-14 35t-33.5 23t-61.5 10.5v24zM450 876l117 -176h-55l-108 108l-107 -108h-54l115 176h92z" />
    <glyph glyph-name="Udieresis" unicode="&#xdc;" horiz-adv-x="796" 
d="M7 656q87 -6 175 -6q89 0 177 6l-3 -24q-37 -2 -58.5 -8t-32 -18.5t-13.5 -34t-3 -55.5v-332q0 -27 10.5 -53.5t33 -47.5t58 -34t85.5 -13q60 0 99.5 18.5t62 45.5t31.5 59t9 59v246q0 50 -5 82t-18 51t-35 27t-57 8v24q23 -2 57.5 -4t72.5 -2q31 0 61.5 2t60.5 4v-24
q-33 -2 -51.5 -8t-28.5 -18.5t-12.5 -34t-2.5 -55.5v-274q0 -125 -70.5 -193.5t-197.5 -68.5q-76 0 -131 18.5t-91 48.5t-53.5 67t-17.5 74v328q0 27 -3 47.5t-14 35t-33.5 23t-61.5 10.5v24zM503 838q27 0 45.5 -18.5t18.5 -45.5t-18.5 -45.5t-45.5 -18.5t-45.5 18.5
t-18.5 45.5t18.5 45.5t45.5 18.5zM306 838q27 0 45.5 -18.5t18.5 -45.5t-18.5 -45.5t-45.5 -18.5t-45.5 18.5t-18.5 45.5t18.5 45.5t45.5 18.5z" />
    <glyph glyph-name="Yacute" unicode="&#xdd;" horiz-adv-x="722" 
d="M-27 656q44 -2 87.5 -4t87.5 -2q91 0 181 6v-24q-34 0 -60 -11.5t-26 -38.5q0 -10 18 -36.5t45.5 -63t59.5 -79t59 -84.5q7 11 19 31t26 44.5t28.5 51t26.5 50.5t19.5 44t7.5 31q0 35 -22.5 47.5t-52.5 13.5v24q35 -2 69.5 -4t69.5 -2q32 0 63.5 2t63.5 4v-24
q-30 -1 -52 -11.5t-41.5 -30t-38 -47t-41.5 -61.5l-127 -190v-181q0 -27 4 -44.5t15.5 -27.5t32 -14t53.5 -5l1 -24q-43 2 -85 3t-84 1q-45 0 -88.5 -1t-87.5 -3v24q33 1 53.5 5t32 14t15.5 27.5t4 44.5v173l-208 274q-26 34 -54 54t-74 20v24zM287 700l115 139
q20 23 36.5 35t33.5 12q20 0 33.5 -13t13.5 -28q0 -14 -5 -25t-19 -20l-150 -100h-58z" />
    <glyph glyph-name="Thorn" unicode="&#xde;" horiz-adv-x="648" 
d="M132 522q0 59 -22.5 83.5t-84.5 26.5v24q46 -2 91 -4t91 -2q44 0 86.5 2t86.5 4v-24q-31 -1 -51.5 -6t-33.5 -15t-19.5 -26t-8.5 -39q41 2 66 3t47 1q44 0 86.5 -12t75.5 -36t53.5 -61.5t20.5 -88.5q0 -45 -18.5 -77.5t-49 -54.5t-69 -32.5t-79.5 -10.5q-25 0 -54.5 3.5
t-79.5 13.5v-96q0 -25 8.5 -39.5t23.5 -23t35 -11.5t42 -4v-24q-44 2 -87 3t-87 1q-45 0 -90 -1t-90 -3v24q22 1 42 4t35.5 11.5t24.5 23t9 39.5v424zM266 227q26 -6 44.5 -10t34.5 -4q68 0 102.5 42.5t34.5 107.5q0 32 -7 59.5t-22 48t-39.5 32t-59.5 11.5q-20 0 -39.5 -3
t-48.5 -11v-273z" />
    <glyph glyph-name="germandbls" unicode="&#xdf;" horiz-adv-x="574" 
d="M181 75q0 -18 6 -29.5t15 -18t19.5 -9t19.5 -2.5v-20q-17 2 -42.5 3t-77.5 1q-49 0 -77 -1t-47 -3v20q12 0 23.5 2.5t21 9t15.5 18t6 29.5v269h-49l8 30h41v56q0 70 20 122.5t52.5 88t73 53.5t81.5 18q29 0 56 -7t47.5 -21.5t32.5 -36t12 -51.5q0 -26 -16.5 -49
t-36.5 -45t-36.5 -44.5t-16.5 -48.5q0 -18 14 -37t35 -39t46 -42t46 -47t35 -53t14 -60q0 -36 -13.5 -63t-35.5 -44t-50.5 -25.5t-58.5 -8.5q-13 0 -29.5 2.5t-32 7t-28.5 9.5t-21 11l-4 111h21q4 -19 11 -38.5t18 -35.5t27 -26.5t38 -10.5q23 0 34.5 17.5t11.5 39.5
q0 32 -12 57.5t-30.5 47.5t-39.5 41.5t-39.5 39t-30.5 40t-12 44.5t15 47t32 49t32 54t15 63q0 23 -6.5 44t-17 36.5t-24.5 24.5t-30 9q-15 0 -29.5 -8.5t-26 -24t-18.5 -37.5t-7 -50v-479z" />
    <glyph glyph-name="agrave" unicode="&#xe0;" horiz-adv-x="481" 
d="M130 110q0 -31 18 -48.5t50 -17.5q18 0 35.5 6t31.5 19q-1 14 -1.5 26t-0.5 25q0 14 0.5 27t1.5 27q-14 2 -26.5 3t-26.5 1q-30 0 -56 -17t-26 -51zM265 284q0 68 -48 68q-17 0 -27.5 -6t-16 -15.5t-7.5 -21.5t-2 -23q0 -10 0.5 -16.5t1.5 -11.5q-37 8 -69 15t-65 12
q4 32 20 52.5t39.5 32t51.5 16t55 4.5q32 0 65 -5.5t59.5 -19t43.5 -36t17 -56.5q0 -18 -1 -40t-1.5 -43.5t-1.5 -41t-1 -32.5q0 -22 8 -40t34 -18q17 0 30.5 9t25.5 20l16 -18q-12 -10 -26.5 -25t-30 -28t-32.5 -22.5t-35 -9.5q-25 0 -49 18t-41 35q-37 -23 -78 -38
t-85 -15q-21 0 -41.5 7t-36.5 19.5t-25.5 29.5t-9.5 36q0 48 26 74.5t65.5 40t85.5 16.5t86 3v74zM246 444l-150 100q-14 9 -19 20t-5 25q0 15 13.5 28t33.5 13q17 0 33.5 -12t36.5 -35l115 -139h-58z" />
    <glyph glyph-name="aacute" unicode="&#xe1;" horiz-adv-x="481" 
d="M130 110q0 -31 18 -48.5t50 -17.5q18 0 35.5 6t31.5 19q-1 14 -1.5 26t-0.5 25q0 14 0.5 27t1.5 27q-14 2 -26.5 3t-26.5 1q-30 0 -56 -17t-26 -51zM265 284q0 68 -48 68q-17 0 -27.5 -6t-16 -15.5t-7.5 -21.5t-2 -23q0 -10 0.5 -16.5t1.5 -11.5q-37 8 -69 15t-65 12
q4 32 20 52.5t39.5 32t51.5 16t55 4.5q32 0 65 -5.5t59.5 -19t43.5 -36t17 -56.5q0 -18 -1 -40t-1.5 -43.5t-1.5 -41t-1 -32.5q0 -22 8 -40t34 -18q17 0 30.5 9t25.5 20l16 -18q-12 -10 -26.5 -25t-30 -28t-32.5 -22.5t-35 -9.5q-25 0 -49 18t-41 35q-37 -23 -78 -38
t-85 -15q-21 0 -41.5 7t-36.5 19.5t-25.5 29.5t-9.5 36q0 48 26 74.5t65.5 40t85.5 16.5t86 3v74zM144 444l115 139q20 23 36.5 35t33.5 12q20 0 33.5 -13t13.5 -28q0 -14 -5 -25t-19 -20l-150 -100h-58z" />
    <glyph glyph-name="acircumflex" unicode="&#xe2;" horiz-adv-x="481" 
d="M130 110q0 -31 18 -48.5t50 -17.5q18 0 35.5 6t31.5 19q-1 14 -1.5 26t-0.5 25q0 14 0.5 27t1.5 27q-14 2 -26.5 3t-26.5 1q-30 0 -56 -17t-26 -51zM265 284q0 68 -48 68q-17 0 -27.5 -6t-16 -15.5t-7.5 -21.5t-2 -23q0 -10 0.5 -16.5t1.5 -11.5q-37 8 -69 15t-65 12
q4 32 20 52.5t39.5 32t51.5 16t55 4.5q32 0 65 -5.5t59.5 -19t43.5 -36t17 -56.5q0 -18 -1 -40t-1.5 -43.5t-1.5 -41t-1 -32.5q0 -22 8 -40t34 -18q17 0 30.5 9t25.5 20l16 -18q-12 -10 -26.5 -25t-30 -28t-32.5 -22.5t-35 -9.5q-25 0 -49 18t-41 35q-37 -23 -78 -38
t-85 -15q-21 0 -41.5 7t-36.5 19.5t-25.5 29.5t-9.5 36q0 48 26 74.5t65.5 40t85.5 16.5t86 3v74zM264 620l117 -176h-55l-108 108l-107 -108h-54l115 176h92z" />
    <glyph glyph-name="atilde" unicode="&#xe3;" horiz-adv-x="481" 
d="M130 110q0 -31 18 -48.5t50 -17.5q18 0 35.5 6t31.5 19q-1 14 -1.5 26t-0.5 25q0 14 0.5 27t1.5 27q-14 2 -26.5 3t-26.5 1q-30 0 -56 -17t-26 -51zM265 284q0 68 -48 68q-17 0 -27.5 -6t-16 -15.5t-7.5 -21.5t-2 -23q0 -10 0.5 -16.5t1.5 -11.5q-37 8 -69 15t-65 12
q4 32 20 52.5t39.5 32t51.5 16t55 4.5q32 0 65 -5.5t59.5 -19t43.5 -36t17 -56.5q0 -18 -1 -40t-1.5 -43.5t-1.5 -41t-1 -32.5q0 -22 8 -40t34 -18q17 0 30.5 9t25.5 20l16 -18q-12 -10 -26.5 -25t-30 -28t-32.5 -22.5t-35 -9.5q-25 0 -49 18t-41 35q-37 -23 -78 -38
t-85 -15q-21 0 -41.5 7t-36.5 19.5t-25.5 29.5t-9.5 36q0 48 26 74.5t65.5 40t85.5 16.5t86 3v74zM50 464q4 24 11.5 47t20 40.5t32 28t47.5 10.5q15 0 33.5 -8t37 -17t35.5 -17t29 -8q23 0 33.5 16t17.5 34h39q-3 -19 -11 -41t-21 -41t-30.5 -31.5t-39.5 -12.5
q-24 0 -43.5 8t-38 17t-36.5 17t-38 8q-8 0 -15 -5t-12 -12.5t-8.5 -16.5t-5.5 -16h-37z" />
    <glyph glyph-name="adieresis" unicode="&#xe4;" horiz-adv-x="481" 
d="M130 110q0 -31 18 -48.5t50 -17.5q18 0 35.5 6t31.5 19q-1 14 -1.5 26t-0.5 25q0 14 0.5 27t1.5 27q-14 2 -26.5 3t-26.5 1q-30 0 -56 -17t-26 -51zM265 284q0 68 -48 68q-17 0 -27.5 -6t-16 -15.5t-7.5 -21.5t-2 -23q0 -10 0.5 -16.5t1.5 -11.5q-37 8 -69 15t-65 12
q4 32 20 52.5t39.5 32t51.5 16t55 4.5q32 0 65 -5.5t59.5 -19t43.5 -36t17 -56.5q0 -18 -1 -40t-1.5 -43.5t-1.5 -41t-1 -32.5q0 -22 8 -40t34 -18q17 0 30.5 9t25.5 20l16 -18q-12 -10 -26.5 -25t-30 -28t-32.5 -22.5t-35 -9.5q-25 0 -49 18t-41 35q-37 -23 -78 -38
t-85 -15q-21 0 -41.5 7t-36.5 19.5t-25.5 29.5t-9.5 36q0 48 26 74.5t65.5 40t85.5 16.5t86 3v74zM317 582q27 0 45.5 -18.5t18.5 -45.5t-18.5 -45.5t-45.5 -18.5t-45.5 18.5t-18.5 45.5t18.5 45.5t45.5 18.5zM120 582q27 0 45.5 -18.5t18.5 -45.5t-18.5 -45.5t-45.5 -18.5
t-45.5 18.5t-18.5 45.5t18.5 45.5t45.5 18.5z" />
    <glyph glyph-name="aring" unicode="&#xe5;" horiz-adv-x="481" 
d="M130 110q0 -31 18 -48.5t50 -17.5q18 0 35.5 6t31.5 19q-1 14 -1.5 26t-0.5 25q0 14 0.5 27t1.5 27q-14 2 -26.5 3t-26.5 1q-30 0 -56 -17t-26 -51zM265 284q0 68 -48 68q-17 0 -27.5 -6t-16 -15.5t-7.5 -21.5t-2 -23q0 -10 0.5 -16.5t1.5 -11.5q-37 8 -69 15t-65 12
q4 32 20 52.5t39.5 32t51.5 16t55 4.5q32 0 65 -5.5t59.5 -19t43.5 -36t17 -56.5q0 -18 -1 -40t-1.5 -43.5t-1.5 -41t-1 -32.5q0 -22 8 -40t34 -18q17 0 30.5 9t25.5 20l16 -18q-12 -10 -26.5 -25t-30 -28t-32.5 -22.5t-35 -9.5q-25 0 -49 18t-41 35q-37 -23 -78 -38
t-85 -15q-21 0 -41.5 7t-36.5 19.5t-25.5 29.5t-9.5 36q0 48 26 74.5t65.5 40t85.5 16.5t86 3v74zM218 446q-45 0 -75.5 30.5t-30.5 75.5t30.5 75.5t75.5 30.5t75.5 -30.5t30.5 -75.5t-30.5 -75.5t-75.5 -30.5zM218 494q26 0 42 17t16 41t-16 41t-42 17t-42 -17t-16 -41
t16 -41t42 -17z" />
    <glyph glyph-name="ae" unicode="&#xe6;" 
d="M382 189q0 -30 10 -56.5t27 -46t41 -31t52 -11.5q43 0 75 17.5t58 40.5l16 -27q-44 -45 -93.5 -68t-117.5 -23q-42 0 -85 16.5t-69 50.5q-35 -29 -80.5 -48t-90.5 -19q-24 0 -46 5t-39.5 17t-27.5 30.5t-10 45.5q0 60 64 94t192 34v95q0 20 -12 33.5t-32 13.5
q-26 0 -42.5 -16t-16.5 -42v-20t2 -17q-33 11 -67.5 14t-62.5 4q2 30 17 52t40 36t59.5 20.5t74.5 6.5q30 0 65 -10t58 -30q32 21 62 30.5t69 9.5q42 0 77 -15.5t59.5 -42.5t38.5 -64t15 -79h-280zM124 109q0 -34 21 -49.5t51 -15.5q24 0 44.5 10t37.5 27q-11 23 -15.5 47.5
t-4.5 47.5q-8 1 -16.5 1.5t-17.5 0.5q-18 0 -35.5 -3.5t-32 -11.5t-23.5 -21t-9 -33zM512 227q18 0 22 8t4 22q0 15 -4 31.5t-13 31t-22.5 23.5t-31.5 9q-27 0 -44 -12t-26.5 -30.5t-13 -40t-3.5 -41.5z" />
    <glyph glyph-name="ccedilla" unicode="&#xe7;" horiz-adv-x="444" 
d="M425 64q-45 -38 -91.5 -59t-97.5 -21q-45 0 -87 13.5t-74.5 39.5t-52.5 64t-20 86t20 86t52.5 64t74.5 39.5t87 13.5q18 0 33.5 -2t30.5 -4t29.5 -4t28.5 -2h25q0 -15 0.5 -37t2 -46.5t3.5 -48.5t5 -44h-19q-8 21 -20 47.5t-29.5 49t-40.5 38t-53 15.5q-49 0 -75.5 -35
t-26.5 -87q0 -40 11 -74.5t31.5 -59t49.5 -38.5t64 -14q32 0 58.5 10.5t57.5 32.5zM118 -168q14 -7 29 -11.5t32 -4.5q29 0 44.5 13t15.5 27q0 21 -14.5 31.5t-32.5 10.5q-7 0 -14.5 -2.5t-15.5 -4.5l-10 8l43 98h39l-28 -65q10 2 20 3t20 1q39 0 61 -18.5t22 -51.5
q0 -44 -35.5 -66t-89.5 -22q-26 0 -52 3t-50 14z" />
    <glyph glyph-name="egrave" unicode="&#xe8;" horiz-adv-x="463" 
d="M264 226q20 0 27 5t7 23q0 44 -18 71t-62 27q-23 0 -38.5 -12.5t-25 -31.5t-13.5 -41t-4 -41h127zM137 188q0 -63 35.5 -103.5t100.5 -40.5q35 0 68.5 15t56.5 43l24 -26q-39 -44 -91 -68t-109 -24q-49 0 -88 14.5t-67 41t-43 64t-15 83.5t15 83.5t43 64t67 41t88 14.5
q48 0 84.5 -15.5t62 -43t39.5 -64.5t18 -79h-289zM260 444l-150 100q-14 9 -19 20t-5 25q0 15 13.5 28t33.5 13q17 0 33.5 -12t36.5 -35l115 -139h-58z" />
    <glyph glyph-name="eacute" unicode="&#xe9;" horiz-adv-x="463" 
d="M264 226q20 0 27 5t7 23q0 44 -18 71t-62 27q-23 0 -38.5 -12.5t-25 -31.5t-13.5 -41t-4 -41h127zM137 188q0 -63 35.5 -103.5t100.5 -40.5q35 0 68.5 15t56.5 43l24 -26q-39 -44 -91 -68t-109 -24q-49 0 -88 14.5t-67 41t-43 64t-15 83.5t15 83.5t43 64t67 41t88 14.5
q48 0 84.5 -15.5t62 -43t39.5 -64.5t18 -79h-289zM158 444l115 139q20 23 36.5 35t33.5 12q20 0 33.5 -13t13.5 -28q0 -14 -5 -25t-19 -20l-150 -100h-58z" />
    <glyph glyph-name="ecircumflex" unicode="&#xea;" horiz-adv-x="463" 
d="M264 226q20 0 27 5t7 23q0 44 -18 71t-62 27q-23 0 -38.5 -12.5t-25 -31.5t-13.5 -41t-4 -41h127zM137 188q0 -63 35.5 -103.5t100.5 -40.5q35 0 68.5 15t56.5 43l24 -26q-39 -44 -91 -68t-109 -24q-49 0 -88 14.5t-67 41t-43 64t-15 83.5t15 83.5t43 64t67 41t88 14.5
q48 0 84.5 -15.5t62 -43t39.5 -64.5t18 -79h-289zM278 620l117 -176h-55l-108 108l-107 -108h-54l115 176h92z" />
    <glyph glyph-name="edieresis" unicode="&#xeb;" horiz-adv-x="463" 
d="M264 226q20 0 27 5t7 23q0 44 -18 71t-62 27q-23 0 -38.5 -12.5t-25 -31.5t-13.5 -41t-4 -41h127zM137 188q0 -63 35.5 -103.5t100.5 -40.5q35 0 68.5 15t56.5 43l24 -26q-39 -44 -91 -68t-109 -24q-49 0 -88 14.5t-67 41t-43 64t-15 83.5t15 83.5t43 64t67 41t88 14.5
q48 0 84.5 -15.5t62 -43t39.5 -64.5t18 -79h-289zM331 582q27 0 45.5 -18.5t18.5 -45.5t-18.5 -45.5t-45.5 -18.5t-45.5 18.5t-18.5 45.5t18.5 45.5t45.5 18.5zM134 582q27 0 45.5 -18.5t18.5 -45.5t-18.5 -45.5t-45.5 -18.5t-45.5 18.5t-18.5 45.5t18.5 45.5t45.5 18.5z
" />
    <glyph glyph-name="igrave" unicode="&#xec;" horiz-adv-x="296" 
d="M268 -4q-13 1 -26 1.5t-28 1t-34 1t-45 0.5q-49 0 -78 -1t-52 -3v20q28 0 50 11.5t22 47.5v229q0 26 -17 38t-55 12v20q54 2 104 7t89 15q-1 -25 -2 -49t-1 -47v-225q0 -36 22 -47.5t51 -11.5v-20zM156 444l-150 100q-14 9 -19 20t-5 25q0 15 13.5 28t33.5 13
q17 0 33.5 -12t36.5 -35l115 -139h-58z" />
    <glyph glyph-name="iacute" unicode="&#xed;" horiz-adv-x="296" 
d="M268 -4q-13 1 -26 1.5t-28 1t-34 1t-45 0.5q-49 0 -78 -1t-52 -3v20q28 0 50 11.5t22 47.5v229q0 26 -17 38t-55 12v20q54 2 104 7t89 15q-1 -25 -2 -49t-1 -47v-225q0 -36 22 -47.5t51 -11.5v-20zM54 444l115 139q20 23 36.5 35t33.5 12q20 0 33.5 -13t13.5 -28
q0 -14 -5 -25t-19 -20l-150 -100h-58z" />
    <glyph glyph-name="icircumflex" unicode="&#xee;" horiz-adv-x="296" 
d="M268 -4q-13 1 -26 1.5t-28 1t-34 1t-45 0.5q-49 0 -78 -1t-52 -3v20q28 0 50 11.5t22 47.5v229q0 26 -17 38t-55 12v20q54 2 104 7t89 15q-1 -25 -2 -49t-1 -47v-225q0 -36 22 -47.5t51 -11.5v-20zM174 620l117 -176h-55l-108 108l-107 -108h-54l115 176h92z" />
    <glyph glyph-name="idieresis" unicode="&#xef;" horiz-adv-x="296" 
d="M268 -4q-13 1 -26 1.5t-28 1t-34 1t-45 0.5q-49 0 -78 -1t-52 -3v20q28 0 50 11.5t22 47.5v229q0 26 -17 38t-55 12v20q54 2 104 7t89 15q-1 -25 -2 -49t-1 -47v-225q0 -36 22 -47.5t51 -11.5v-20zM227 582q27 0 45.5 -18.5t18.5 -45.5t-18.5 -45.5t-45.5 -18.5
t-45.5 18.5t-18.5 45.5t18.5 45.5t45.5 18.5zM30 582q27 0 45.5 -18.5t18.5 -45.5t-18.5 -45.5t-45.5 -18.5t-45.5 18.5t-18.5 45.5t18.5 45.5t45.5 18.5z" />
    <glyph glyph-name="eth" unicode="&#xf0;" horiz-adv-x="519" 
d="M143 206q0 -47 9 -82t24.5 -57.5t35.5 -33.5t41 -11q42 0 66 37t24 109q0 47 -9 82t-24.5 57.5t-35.5 33.5t-41 11q-42 0 -66 -37t-24 -109zM104 712q35 -19 73 -45.5t76 -59.5l140 79l22 -33l-131 -74q39 -37 74 -79t61.5 -88t42 -94.5t15.5 -97.5q0 -58 -20 -102
t-52.5 -74t-74.5 -45t-87 -15t-87 13.5t-74.5 39.5t-52.5 64t-20 86t20 86t52.5 64t74.5 39.5t87 13.5q16 0 32.5 -2t36.5 -8q-7 37 -31 80t-57 85l-132 -75l-22 33l128 73q-32 38 -65 69t-61 50z" />
    <glyph glyph-name="ntilde" unicode="&#xf1;" horiz-adv-x="556" 
d="M183 326q35 30 70 47t79 17q61 0 96.5 -34.5t35.5 -92.5v-188q0 -18 6 -29.5t15.5 -18t21 -9t23.5 -2.5v-20q-21 1 -47.5 2.5t-78.5 1.5q-49 0 -77 -1t-45 -3v20q11 0 22.5 2.5t20.5 9t15 18t6 29.5v186q0 29 -22 47t-57 18q-24 0 -45.5 -11t-38.5 -28v-212
q0 -18 6 -29.5t15.5 -18t21 -9t22.5 -2.5v-20q-10 1 -21 1.5t-25.5 1t-33.5 1t-45 0.5q-49 0 -77.5 -1t-49.5 -3v20q13 0 25.5 2.5t22 9t15.5 18t6 29.5v229q0 50 -66 50v20q49 2 98 4.5t86 11.5v-64zM93 464q4 24 11.5 47t20 40.5t32 28t47.5 10.5q15 0 33.5 -8t37 -17
t35.5 -17t29 -8q23 0 33.5 16t17.5 34h39q-3 -19 -11 -41t-21 -41t-30.5 -31.5t-39.5 -12.5q-24 0 -43.5 8t-38 17t-36.5 17t-38 8q-8 0 -15 -5t-12 -12.5t-8.5 -16.5t-5.5 -16h-37z" />
    <glyph glyph-name="ograve" unicode="&#xf2;" horiz-adv-x="519" 
d="M143 206q0 -47 9 -82t24.5 -57.5t35.5 -33.5t41 -11q42 0 66 37t24 109q0 47 -9 82t-24.5 57.5t-35.5 33.5t-41 11q-42 0 -66 -37t-24 -109zM243 390q45 0 87 -13.5t74.5 -39.5t52.5 -64t20 -86t-20 -86t-52.5 -64t-74.5 -39.5t-87 -13.5t-87 13.5t-74.5 39.5t-52.5 64
t-20 86t20 86t52.5 64t74.5 39.5t87 13.5zM282 444l-150 100q-14 9 -19 20t-5 25q0 15 13.5 28t33.5 13q17 0 33.5 -12t36.5 -35l115 -139h-58z" />
    <glyph glyph-name="oacute" unicode="&#xf3;" horiz-adv-x="519" 
d="M143 206q0 -47 9 -82t24.5 -57.5t35.5 -33.5t41 -11q42 0 66 37t24 109q0 47 -9 82t-24.5 57.5t-35.5 33.5t-41 11q-42 0 -66 -37t-24 -109zM243 390q45 0 87 -13.5t74.5 -39.5t52.5 -64t20 -86t-20 -86t-52.5 -64t-74.5 -39.5t-87 -13.5t-87 13.5t-74.5 39.5t-52.5 64
t-20 86t20 86t52.5 64t74.5 39.5t87 13.5zM180 444l115 139q20 23 36.5 35t33.5 12q20 0 33.5 -13t13.5 -28q0 -14 -5 -25t-19 -20l-150 -100h-58z" />
    <glyph glyph-name="ocircumflex" unicode="&#xf4;" horiz-adv-x="519" 
d="M143 206q0 -47 9 -82t24.5 -57.5t35.5 -33.5t41 -11q42 0 66 37t24 109q0 47 -9 82t-24.5 57.5t-35.5 33.5t-41 11q-42 0 -66 -37t-24 -109zM243 390q45 0 87 -13.5t74.5 -39.5t52.5 -64t20 -86t-20 -86t-52.5 -64t-74.5 -39.5t-87 -13.5t-87 13.5t-74.5 39.5t-52.5 64
t-20 86t20 86t52.5 64t74.5 39.5t87 13.5zM300 620l117 -176h-55l-108 108l-107 -108h-54l115 176h92z" />
    <glyph glyph-name="otilde" unicode="&#xf5;" horiz-adv-x="519" 
d="M143 206q0 -47 9 -82t24.5 -57.5t35.5 -33.5t41 -11q42 0 66 37t24 109q0 47 -9 82t-24.5 57.5t-35.5 33.5t-41 11q-42 0 -66 -37t-24 -109zM243 390q45 0 87 -13.5t74.5 -39.5t52.5 -64t20 -86t-20 -86t-52.5 -64t-74.5 -39.5t-87 -13.5t-87 13.5t-74.5 39.5t-52.5 64
t-20 86t20 86t52.5 64t74.5 39.5t87 13.5zM86 464q4 24 11.5 47t20 40.5t32 28t47.5 10.5q15 0 33.5 -8t37 -17t35.5 -17t29 -8q23 0 33.5 16t17.5 34h39q-3 -19 -11 -41t-21 -41t-30.5 -31.5t-39.5 -12.5q-24 0 -43.5 8t-38 17t-36.5 17t-38 8q-8 0 -15 -5t-12 -12.5
t-8.5 -16.5t-5.5 -16h-37z" />
    <glyph glyph-name="odieresis" unicode="&#xf6;" horiz-adv-x="519" 
d="M143 206q0 -47 9 -82t24.5 -57.5t35.5 -33.5t41 -11q42 0 66 37t24 109q0 47 -9 82t-24.5 57.5t-35.5 33.5t-41 11q-42 0 -66 -37t-24 -109zM243 390q45 0 87 -13.5t74.5 -39.5t52.5 -64t20 -86t-20 -86t-52.5 -64t-74.5 -39.5t-87 -13.5t-87 13.5t-74.5 39.5t-52.5 64
t-20 86t20 86t52.5 64t74.5 39.5t87 13.5zM353 582q27 0 45.5 -18.5t18.5 -45.5t-18.5 -45.5t-45.5 -18.5t-45.5 18.5t-18.5 45.5t18.5 45.5t45.5 18.5zM156 582q27 0 45.5 -18.5t18.5 -45.5t-18.5 -45.5t-45.5 -18.5t-45.5 18.5t-18.5 45.5t18.5 45.5t45.5 18.5z" />
    <glyph glyph-name="divide" unicode="&#xf7;" horiz-adv-x="600" 
d="M98 149v76h374v-76h-374zM233 337q0 23 16 38t37 15q22 0 37.5 -15.5t15.5 -37.5q0 -20 -15.5 -36.5t-37.5 -16.5q-21 0 -37 15.5t-16 37.5zM233 37q0 23 16 38t37 15q22 0 37.5 -15.5t15.5 -37.5q0 -20 -15.5 -36.5t-37.5 -16.5q-21 0 -37 15.5t-16 37.5z" />
    <glyph glyph-name="oslash" unicode="&#xf8;" horiz-adv-x="519" 
d="M301 318q-28 34 -68 34q-42 0 -66 -37t-24 -109q0 -64 17 -107zM66 -101l-24 16l67 104q-45 26 -72.5 68t-27.5 100q0 48 20 86t52.5 64t74.5 39.5t87 13.5q50 0 94 -16l68 105l28 -18l-65 -99q48 -26 78.5 -70t30.5 -105q0 -48 -20 -86t-52.5 -64t-74.5 -39.5t-87 -13.5
q-28 0 -55 5.5t-52 16.5zM176 68q16 -23 36 -34.5t41 -11.5q42 0 66 37t24 109q0 38 -6 68t-17 52z" />
    <glyph glyph-name="ugrave" unicode="&#xf9;" horiz-adv-x="537" 
d="M445 70q0 -26 17 -38t55 -12v-20q-54 -2 -103.5 -4.5t-86.5 -11.5v59q-32 -23 -69 -41t-81 -18q-54 0 -87 33t-33 99v188q0 50 -66 50v20q49 2 98 4.5t86 11.5v-267q0 -35 18 -54t49 -19q28 0 48 9t37 25v220q0 26 -17 38t-55 12v20q54 2 103.5 4.5t86.5 11.5v-320z
M285 444l-150 100q-14 9 -19 20t-5 25q0 15 13.5 28t33.5 13q17 0 33.5 -12t36.5 -35l115 -139h-58z" />
    <glyph glyph-name="uacute" unicode="&#xfa;" horiz-adv-x="537" 
d="M445 70q0 -26 17 -38t55 -12v-20q-54 -2 -103.5 -4.5t-86.5 -11.5v59q-32 -23 -69 -41t-81 -18q-54 0 -87 33t-33 99v188q0 50 -66 50v20q49 2 98 4.5t86 11.5v-267q0 -35 18 -54t49 -19q28 0 48 9t37 25v220q0 26 -17 38t-55 12v20q54 2 103.5 4.5t86.5 11.5v-320z
M183 444l115 139q20 23 36.5 35t33.5 12q20 0 33.5 -13t13.5 -28q0 -14 -5 -25t-19 -20l-150 -100h-58z" />
    <glyph glyph-name="ucircumflex" unicode="&#xfb;" horiz-adv-x="537" 
d="M445 70q0 -26 17 -38t55 -12v-20q-54 -2 -103.5 -4.5t-86.5 -11.5v59q-32 -23 -69 -41t-81 -18q-54 0 -87 33t-33 99v188q0 50 -66 50v20q49 2 98 4.5t86 11.5v-267q0 -35 18 -54t49 -19q28 0 48 9t37 25v220q0 26 -17 38t-55 12v20q54 2 103.5 4.5t86.5 11.5v-320z
M303 620l117 -176h-55l-108 108l-107 -108h-54l115 176h92z" />
    <glyph glyph-name="udieresis" unicode="&#xfc;" horiz-adv-x="537" 
d="M445 70q0 -26 17 -38t55 -12v-20q-54 -2 -103.5 -4.5t-86.5 -11.5v59q-32 -23 -69 -41t-81 -18q-54 0 -87 33t-33 99v188q0 50 -66 50v20q49 2 98 4.5t86 11.5v-267q0 -35 18 -54t49 -19q28 0 48 9t37 25v220q0 26 -17 38t-55 12v20q54 2 103.5 4.5t86.5 11.5v-320z
M356 582q27 0 45.5 -18.5t18.5 -45.5t-18.5 -45.5t-45.5 -18.5t-45.5 18.5t-18.5 45.5t18.5 45.5t45.5 18.5zM159 582q27 0 45.5 -18.5t18.5 -45.5t-18.5 -45.5t-45.5 -18.5t-45.5 18.5t-18.5 45.5t18.5 45.5t45.5 18.5z" />
    <glyph glyph-name="yacute" unicode="&#xfd;" horiz-adv-x="537" 
d="M-27 378q38 -2 74.5 -3t74.5 -1q32 0 63 1t63 3v-20q-21 -3 -39.5 -15.5t-18.5 -38.5q0 -19 13 -53t30 -71.5t34 -72.5t25 -56q8 20 25 56.5t34.5 75.5t31 74t13.5 52q0 27 -18 38t-42 11v20q26 -2 52.5 -3t52.5 -1q23 0 45.5 1t45.5 3v-20q-32 0 -57.5 -27t-51.5 -86
q-15 -33 -41.5 -86t-57 -109.5t-60 -109.5t-50.5 -86q-30 -48 -73 -76t-103 -28q-18 0 -37.5 6.5t-35.5 18.5t-26.5 29.5t-10.5 39.5q0 30 18 51t50 21q25 0 42.5 -16t17.5 -41q0 -9 -2 -18t-2 -18q0 -16 13 -20.5t26 -4.5q21 0 41.5 17t37.5 40t31 48t22 41l-151 331
q-15 34 -37 56t-62 27v20zM195 444l115 139q20 23 36.5 35t33.5 12q20 0 33.5 -13t13.5 -28q0 -14 -5 -25t-19 -20l-150 -100h-58z" />
    <glyph glyph-name="thorn" unicode="&#xfe;" horiz-adv-x="556" 
d="M171 339q39 29 72 40t67 11q44 0 81 -15.5t64 -42.5t42 -64t15 -81q0 -47 -16 -83t-44 -60.5t-65.5 -37t-80.5 -12.5t-75 4.5t-60 18.5v-114q0 -38 5 -60t18.5 -34t37 -17t60.5 -8v-20q-44 2 -87 3t-87 1q-32 0 -64.5 -1t-64.5 -3v20q22 0 35 7t19.5 18t8 24t1.5 26v761
q0 50 -66 50v20q49 2 98 7t86 15v-373zM171 132q0 -45 23 -72.5t81 -27.5q55 0 78 38.5t23 114.5q0 78 -23 116.5t-78 38.5q-16 0 -32.5 -6t-30.5 -15.5t-25 -20.5t-16 -22v-144z" />
    <glyph glyph-name="ydieresis" unicode="&#xff;" horiz-adv-x="537" 
d="M-27 378q38 -2 74.5 -3t74.5 -1q32 0 63 1t63 3v-20q-21 -3 -39.5 -15.5t-18.5 -38.5q0 -19 13 -53t30 -71.5t34 -72.5t25 -56q8 20 25 56.5t34.5 75.5t31 74t13.5 52q0 27 -18 38t-42 11v20q26 -2 52.5 -3t52.5 -1q23 0 45.5 1t45.5 3v-20q-32 0 -57.5 -27t-51.5 -86
q-15 -33 -41.5 -86t-57 -109.5t-60 -109.5t-50.5 -86q-30 -48 -73 -76t-103 -28q-18 0 -37.5 6.5t-35.5 18.5t-26.5 29.5t-10.5 39.5q0 30 18 51t50 21q25 0 42.5 -16t17.5 -41q0 -9 -2 -18t-2 -18q0 -16 13 -20.5t26 -4.5q21 0 41.5 17t37.5 40t31 48t22 41l-151 331
q-15 34 -37 56t-62 27v20zM368 582q27 0 45.5 -18.5t18.5 -45.5t-18.5 -45.5t-45.5 -18.5t-45.5 18.5t-18.5 45.5t18.5 45.5t45.5 18.5zM171 582q27 0 45.5 -18.5t18.5 -45.5t-18.5 -45.5t-45.5 -18.5t-45.5 18.5t-18.5 45.5t18.5 45.5t45.5 18.5z" />
    <glyph glyph-name="dotlessi" unicode="&#x131;" horiz-adv-x="296" 
d="M268 -4q-13 1 -26 1.5t-28 1t-34 1t-45 0.5q-49 0 -78 -1t-52 -3v20q28 0 50 11.5t22 47.5v229q0 26 -17 38t-55 12v20q54 2 104 7t89 15q-1 -25 -2 -49t-1 -47v-225q0 -36 22 -47.5t51 -11.5v-20z" />
    <glyph glyph-name="Lslash" unicode="&#x141;" horiz-adv-x="667" 
d="M21 20q20 0 39 2t34 9.5t24 21.5t9 38v208l-85 -28v45l85 28v191q0 28 -7.5 45t-21 27.5t-32.5 16t-43 8.5v24q90 -6 181 -6q92 0 185 6v-24q-23 -3 -46 -8.5t-41 -16t-29.5 -27.5t-11.5 -45v-146l145 49v-45l-145 -49v-303q14 -4 39 -5.5t54 -1.5q56 0 98 11t76 34.5
t61 59t52 83.5l25 -11q-26 -52 -45.5 -105.5t-33.5 -109.5q-69 2 -138.5 3t-138.5 1q-72 0 -144.5 -1t-144.5 -3v24z" />
    <glyph glyph-name="lslash" unicode="&#x142;" horiz-adv-x="296" 
d="M6 16q28 0 50 11.5t22 47.5v244l-81 -37v46l81 37v243q0 35 -16.5 48.5t-53.5 13.5v20q52 2 101.5 7t86.5 15v-293l81 37v-46l-81 -37v-298q0 -36 22 -47.5t51 -11.5v-20q-13 1 -26 1.5t-28 1t-34 1t-45 0.5q-49 0 -78 -1t-52 -3v20z" />
    <glyph glyph-name="OE" unicode="&#x152;" horiz-adv-x="1000" 
d="M908 458q-10 50 -31.5 82.5t-50.5 51.5t-65 26.5t-76 7.5h-77v-251q39 0 67.5 5.5t49.5 19.5t34.5 39.5t22.5 65.5h22q-3 -37 -5.5 -74t-2.5 -74t2.5 -74t5.5 -74h-22q-9 42 -22.5 68.5t-34.5 41.5t-49.5 20.5t-67.5 5.5v-304q35 -11 69 -11q56 0 100 14t80 39.5
t65.5 62.5t56.5 82l21 -19q-26 -51 -49 -104t-38 -109q-34 1 -73 1.5t-85.5 1t-102 1t-121.5 0.5q-45 0 -90 -2t-90 -2q-70 0 -130 18.5t-103.5 55.5t-68.5 92.5t-25 130.5q0 83 25.5 150.5t73 115.5t114.5 74.5t149 26.5q42 0 82.5 -2t82.5 -2h198q45 0 91 1t88 3
q-1 -22 -1.5 -43t-0.5 -43q0 -29 2 -58t5 -58h-25zM474 546q0 22 -3 37.5t-12 26t-24.5 15.5t-40.5 5q-69 0 -113 -28t-69 -73.5t-34.5 -102.5t-9.5 -116q0 -53 12 -103.5t39 -89.5t69.5 -63t103.5 -24q41 0 61.5 14.5t20.5 49.5v452z" />
    <glyph glyph-name="oe" unicode="&#x153;" horiz-adv-x="796" 
d="M605 227q10 0 16 6.5t6 23.5t-4.5 34t-13.5 31t-22 23t-30 9q-26 0 -43 -11.5t-27.5 -29.5t-15 -40.5t-4.5 -45.5h138zM467 189q0 -32 10.5 -58.5t29.5 -46t44.5 -30t56.5 -10.5q35 0 67 15t55 41l23 -25q-37 -44 -92.5 -67.5t-112.5 -23.5q-42 0 -76.5 12t-65.5 39
q-36 -26 -78 -38.5t-86 -12.5q-45 0 -87.5 13t-74.5 38.5t-51.5 63.5t-19.5 88q0 49 20 86.5t52.5 63.5t75 39.5t87.5 13.5t86.5 -14t79.5 -38q21 15 38 25t34 16t36.5 8.5t45.5 2.5q41 0 75.5 -16.5t59 -44t39 -64t14.5 -76.5h-285zM137 206q0 -47 9 -82t24.5 -57.5
t35.5 -33.5t41 -11q42 0 67 37t25 109q0 47 -9 82t-24.5 57.5t-36 33.5t-42.5 11q-42 0 -66 -37t-24 -109z" />
    <glyph glyph-name="Scaron" unicode="&#x160;" horiz-adv-x="611" 
d="M504 457q-10 37 -32.5 69t-52 56t-64.5 38t-71 14q-45 0 -76.5 -23.5t-31.5 -70.5q0 -36 28.5 -61t71.5 -45.5t92.5 -41.5t92.5 -50.5t71.5 -70.5t28.5 -102q0 -43 -17 -78t-48 -59.5t-75 -38t-98 -13.5q-25 0 -50 4.5t-49.5 10t-49.5 10t-50 4.5q-4 0 -10.5 -1.5
t-14 -3.5t-14.5 -4t-11 -4q-8 56 -17 113t-23 115h22q11 -37 36 -73t58.5 -64.5t72.5 -45.5t77 -17q33 0 60 5t46.5 16.5t30 31t10.5 49.5q0 41 -29 68.5t-72.5 50t-94 43.5t-94 48t-72.5 64t-29 91q0 94 57 136.5t173 42.5q30 0 58 -4.5t53 -10.5t47 -10.5t41 -4.5h36
q-1 -17 -2 -32t-1 -31q0 -29 2.5 -60t4.5 -60h-21zM260 700l-117 176h55l108 -108l107 108h54l-115 -176h-92z" />
    <glyph glyph-name="scaron" unicode="&#x161;" horiz-adv-x="407" 
d="M44 140q27 -52 71.5 -88t105.5 -36q22 0 39 10t17 33q0 21 -18.5 35t-46 25.5t-60 23t-60 28t-46 40.5t-18.5 60q0 34 12 56.5t31.5 36.5t44.5 20t50 6q32 0 71.5 -9t76.5 -9q6 0 14 2l8 -124h-24q-9 18 -23.5 37t-33 34.5t-39.5 26t-42 10.5t-38.5 -8.5t-17.5 -34.5
q0 -21 18 -35t45 -25.5t58.5 -23t58.5 -28t45 -40t18 -58.5q0 -34 -13 -57t-34.5 -37.5t-49 -20.5t-56.5 -6q-46 0 -91 8.5t-87 25.5l-9 122h23zM158 444l-117 176h55l108 -108l107 108h54l-115 -176h-92z" />
    <glyph glyph-name="Ydieresis" unicode="&#x178;" horiz-adv-x="722" 
d="M-27 656q44 -2 87.5 -4t87.5 -2q91 0 181 6v-24q-34 0 -60 -11.5t-26 -38.5q0 -10 18 -36.5t45.5 -63t59.5 -79t59 -84.5q7 11 19 31t26 44.5t28.5 51t26.5 50.5t19.5 44t7.5 31q0 35 -22.5 47.5t-52.5 13.5v24q35 -2 69.5 -4t69.5 -2q32 0 63.5 2t63.5 4v-24
q-30 -1 -52 -11.5t-41.5 -30t-38 -47t-41.5 -61.5l-127 -190v-181q0 -27 4 -44.5t15.5 -27.5t32 -14t53.5 -5l1 -24q-43 2 -85 3t-84 1q-45 0 -88.5 -1t-87.5 -3v24q33 1 53.5 5t32 14t15.5 27.5t4 44.5v173l-208 274q-26 34 -54 54t-74 20v24zM460 838q27 0 45.5 -18.5
t18.5 -45.5t-18.5 -45.5t-45.5 -18.5t-45.5 18.5t-18.5 45.5t18.5 45.5t45.5 18.5zM263 838q27 0 45.5 -18.5t18.5 -45.5t-18.5 -45.5t-45.5 -18.5t-45.5 18.5t-18.5 45.5t18.5 45.5t45.5 18.5z" />
    <glyph glyph-name="Zcaron" unicode="&#x17d;" 
d="M89 442q-1 12 -1 29v35q0 41 3.5 74.5t13.5 75.5q68 -1 134.5 -3.5t134.5 -2.5q72 0 142.5 1t142.5 5l11 -24q-65 -69 -124.5 -142t-116.5 -148t-113 -151t-115 -150q20 -2 40.5 -3.5t40.5 -1.5q61 0 116 8.5t101.5 30t82.5 58.5t57 94h25q-14 -60 -35.5 -118t-50.5 -113
q-69 2 -136 3t-136 1q-67 0 -134 -1t-134 -3l-17 21l471 603q-91 0 -159.5 -4t-115 -22t-71.5 -53.5t-30 -98.5h-27zM306 700l-117 176h55l108 -108l107 108h54l-115 -176h-92z" />
    <glyph glyph-name="zcaron" unicode="&#x17e;" horiz-adv-x="463" 
d="M407 346l-261 -318h42q36 0 68 3.5t58.5 15.5t47 35t32.5 62h23l-26 -148q-38 2 -82 3t-96 1q-58 0 -108 -1t-93 -3l-12 28l265 322h-67q-32 0 -57.5 -5.5t-45 -18.5t-34.5 -34t-26 -52h-15l12 142q38 -2 79 -3t102 -1q60 0 102.5 1t80.5 3zM186 444l-117 176h55
l108 -108l107 108h54l-115 -176h-92z" />
    <glyph glyph-name="florin" unicode="&#x192;" horiz-adv-x="519" 
d="M84 338l8 38h96q11 75 23 137t32 106t52 68.5t82 24.5q19 0 36.5 -5.5t31.5 -16.5t22.5 -27.5t8.5 -39.5q0 -26 -13.5 -40.5t-36.5 -14.5q-29 0 -40 11q3 17 6.5 36.5t3.5 30.5q0 12 -3 22t-19 10q-12 0 -19 -6.5t-12.5 -22t-10.5 -41t-11 -62.5q-2 -11 -4.5 -33t-5 -47
t-4.5 -49.5t-3 -40.5h122l-4 -38h-121q-11 -96 -24.5 -195.5t-36.5 -198.5q-9 -38 -19.5 -71.5t-27 -59t-42.5 -40.5t-65 -15q-52 0 -83 22.5t-31 69.5q0 26 15.5 39.5t33.5 13.5q15 0 27 -4t21 -9q-4 -15 -6.5 -31t-2.5 -32q0 -13 5.5 -24t19.5 -11q19 0 27.5 19.5
t16.5 63.5q11 61 18.5 126t14 126.5t12 116t10.5 94.5h-100z" />
    <glyph glyph-name="circumflex" unicode="&#x2c6;" horiz-adv-x="296" 
d="M194 620l117 -176h-55l-108 108l-107 -108h-54l115 176h92z" />
    <glyph glyph-name="caron" unicode="&#x2c7;" horiz-adv-x="296" 
d="M102 444l-117 176h55l108 -108l107 108h54l-115 -176h-92z" />
    <glyph glyph-name="breve" unicode="&#x2d8;" horiz-adv-x="296" 
d="M50 608q1 -19 8.5 -35.5t20 -29t29 -20t35.5 -7.5q45 0 71.5 24t31.5 68h40q-1 -34 -9.5 -64t-25.5 -52t-43 -35t-64 -13q-35 0 -60.5 14t-41.5 37t-24 52.5t-8 60.5h40z" />
    <glyph glyph-name="dotaccent" unicode="&#x2d9;" horiz-adv-x="296" 
d="M148 582q27 0 45.5 -18.5t18.5 -45.5t-18.5 -45.5t-45.5 -18.5t-45.5 18.5t-18.5 45.5t18.5 45.5t45.5 18.5z" />
    <glyph glyph-name="ring" unicode="&#x2da;" horiz-adv-x="296" 
d="M148 446q-45 0 -75.5 30.5t-30.5 75.5t30.5 75.5t75.5 30.5t75.5 -30.5t30.5 -75.5t-30.5 -75.5t-75.5 -30.5zM148 494q26 0 42 17t16 41t-16 41t-42 17t-42 -17t-16 -41t16 -41t42 -17z" />
    <glyph glyph-name="ogonek" unicode="&#x2db;" horiz-adv-x="296" 
d="M279 -159q-19 -12 -36.5 -22.5t-35.5 -19t-38 -13.5t-44 -5q-20 0 -38 6.5t-32 18.5t-22.5 29t-8.5 38q0 38 25.5 64t62.5 43.5t77 27t69 13.5v-12q-19 -8 -44 -19.5t-47 -27t-37.5 -35t-15.5 -44.5q0 -23 15.5 -34.5t34.5 -11.5q26 0 50.5 13t45.5 27z" />
    <glyph glyph-name="tilde" unicode="&#x2dc;" horiz-adv-x="296" 
d="M-20 464q4 24 11.5 47t20 40.5t32 28t47.5 10.5q15 0 33.5 -8t37 -17t35.5 -17t29 -8q23 0 33.5 16t17.5 34h39q-3 -19 -11 -41t-21 -41t-30.5 -31.5t-39.5 -12.5q-24 0 -43.5 8t-38 17t-36.5 17t-38 8q-8 0 -15 -5t-12 -12.5t-8.5 -16.5t-5.5 -16h-37z" />
    <glyph glyph-name="hungarumlaut" unicode="&#x2dd;" horiz-adv-x="296" 
d="M-15 444l108 139q37 47 70 47q20 0 33.5 -13t13.5 -28q0 -14 -5 -25t-19 -20l-144 -100h-57zM160 448l137 155q13 15 26 21t32 6q18 0 31 -13t13 -31q0 -22 -15 -34t-31 -22l-138 -82h-55z" />
    <glyph glyph-name="endash" unicode="&#x2013;" horiz-adv-x="500" 
d="M0 225h518l-18 -76h-518z" />
    <glyph glyph-name="emdash" unicode="&#x2014;" horiz-adv-x="1000" 
d="M719 225q15 0 31.5 2t32.5 8t29.5 18t22.5 32l18 -8q-14 -31 -23.5 -63.5t-18.5 -64.5h-571q-15 0 -31.5 -2t-32.5 -8t-29.5 -18t-22.5 -32l-18 8q14 31 23.5 63.5t18.5 64.5h571z" />
    <glyph glyph-name="quoteleft" unicode="&#x2018;" horiz-adv-x="222" 
d="M193 692q-28 -25 -38 -45.5t-10 -55.5q0 -18 9 -42.5t9 -47.5q0 -71 -63 -71q-32 0 -47.5 22.5t-15.5 56.5q0 32 11.5 61t31 54t45.5 45.5t54 36.5z" />
    <glyph glyph-name="quoteright" unicode="&#x2019;" horiz-adv-x="222" 
d="M29 434q14 13 23.5 23.5t15 22t7.5 24.5t2 31t-9 42.5t-9 47.5q0 71 63 71q32 0 47.5 -22.5t15.5 -56.5q0 -32 -11.5 -61t-31 -54t-45.5 -45.5t-54 -36.5z" />
    <glyph glyph-name="quotesinglbase" unicode="&#x201a;" horiz-adv-x="222" 
d="M21 -108q29 25 38.5 45.5t9.5 55.5q0 18 -9 42.5t-9 47.5q0 71 63 71q32 0 47.5 -22.5t15.5 -56.5q0 -32 -11.5 -61t-31 -54t-45.5 -45.5t-54 -36.5z" />
    <glyph glyph-name="quotedblleft" unicode="&#x201c;" horiz-adv-x="407" 
d="M185 692q-28 -25 -38 -45.5t-10 -55.5q0 -18 9 -42.5t9 -47.5q0 -71 -63 -71q-32 0 -47.5 22.5t-15.5 56.5q0 32 11.5 61t31 54t45.5 45.5t54 36.5zM370 692q-28 -25 -38 -45.5t-10 -55.5q0 -18 9 -42.5t9 -47.5q0 -71 -63 -71q-32 0 -47.5 22.5t-15.5 56.5q0 32 11.5 61
t31 54t45.5 45.5t54 36.5z" />
    <glyph glyph-name="quotedblright" unicode="&#x201d;" horiz-adv-x="407" 
d="M222 434q14 13 23.5 23.5t15 22t7.5 24.5t2 31t-9 42.5t-9 47.5q0 71 63 71q32 0 47.5 -22.5t15.5 -56.5q0 -32 -11.5 -61t-31 -54t-45.5 -45.5t-54 -36.5zM37 434q14 13 23.5 23.5t15 22t7.5 24.5t2 31t-9 42.5t-9 47.5q0 71 63 71q32 0 47.5 -22.5t15.5 -56.5
q0 -32 -11.5 -61t-31 -54t-45.5 -45.5t-54 -36.5z" />
    <glyph glyph-name="quotedblbase" unicode="&#x201e;" horiz-adv-x="407" 
d="M203 -108q29 25 38.5 45.5t9.5 55.5q0 18 -9 42.5t-9 47.5q0 71 63 71q32 0 47.5 -22.5t15.5 -56.5q0 -32 -11.5 -61t-31 -54t-45.5 -45.5t-54 -36.5zM18 -108q29 25 38.5 45.5t9.5 55.5q0 18 -9 42.5t-9 47.5q0 71 63 71q32 0 47.5 -22.5t15.5 -56.5q0 -32 -11.5 -61
t-31 -54t-45.5 -45.5t-54 -36.5z" />
    <glyph glyph-name="dagger" unicode="&#x2020;" horiz-adv-x="500" 
d="M235 -154q0 45 -2 99t-8 109.5t-17 108.5t-31 95q17 13 28 32.5t17.5 42t9.5 46.5t3 45q-22 0 -42 -6.5t-37.5 -14t-33 -14t-29.5 -6.5q-27 0 -40 15.5t-13 37.5q0 28 13 40.5t34 12.5q9 0 23 -6.5t32.5 -14t42 -14t50.5 -6.5q0 38 -7 62t-15.5 41.5t-15.5 32t-7 32.5
q0 31 15.5 42.5t41.5 11.5t41.5 -11.5t15.5 -42.5q0 -18 -7 -32.5t-15.5 -32t-15.5 -41.5t-7 -62q27 0 50.5 6.5t42 14t32.5 14t23 6.5q21 0 34 -12.5t13 -40.5q0 -22 -13 -37.5t-40 -15.5q-13 0 -29 6.5t-33.5 14t-37.5 14t-42 6.5q0 -21 3 -45t9.5 -46.5t18 -42
t27.5 -32.5q-19 -42 -30.5 -95t-17.5 -108.5t-8 -109.5t-2 -99h-24z" />
    <glyph glyph-name="daggerdbl" unicode="&#x2021;" horiz-adv-x="500" 
d="M247 -154q-26 0 -41.5 11.5t-15.5 42.5q0 18 7 32.5t15.5 32t15.5 42t7 61.5q-27 0 -50.5 -6.5t-42 -14t-32.5 -14t-23 -6.5q-21 0 -34 12.5t-13 40.5q0 22 13 37.5t40 15.5q14 0 29.5 -6.5t33 -14t37.5 -14t42 -6.5q0 21 -3 45t-9.5 46.5t-17.5 42t-28 32.5
q17 13 28 32.5t17.5 42t9.5 46.5t3 45q-22 0 -42 -6.5t-37.5 -14t-33 -14t-29.5 -6.5q-27 0 -40 15.5t-13 37.5q0 28 13 40.5t34 12.5q9 0 23 -6.5t32.5 -14t42 -14t50.5 -6.5q0 38 -7 62t-15.5 41.5t-15.5 32t-7 32.5q0 31 15.5 42.5t41.5 11.5t41.5 -11.5t15.5 -42.5
q0 -18 -7 -32.5t-15.5 -32t-15.5 -41.5t-7 -62q27 0 50.5 6.5t42 14t32.5 14t23 6.5q21 0 34 -12.5t13 -40.5q0 -22 -13 -37.5t-40 -15.5q-13 0 -29 6.5t-33.5 14t-37.5 14t-42 6.5q0 -21 3 -45t9.5 -46.5t18 -42t27.5 -32.5q-16 -13 -27.5 -32.5t-18 -42t-9.5 -46.5t-3 -45
q22 0 42 6.5t37.5 14t33.5 14t29 6.5q27 0 40 -15.5t13 -37.5q0 -28 -13 -40.5t-34 -12.5q-9 0 -23 6.5t-32.5 14t-42 14t-50.5 6.5q0 -37 7 -61.5t15.5 -42t15.5 -32t7 -32.5q0 -31 -15.5 -42.5t-41.5 -11.5z" />
    <glyph glyph-name="bullet" unicode="&#x2022;" horiz-adv-x="500" 
d="M409 325q0 -34 -13 -63.5t-35 -51.5t-51.5 -35t-63.5 -13t-63.5 12.5t-51.5 34.5t-34.5 52t-12.5 64t12.5 63.5t34 51.5t51.5 34.5t64 12.5t63.5 -12.5t51.5 -34.5t35 -51.5t13 -63.5z" />
    <glyph glyph-name="ellipsis" unicode="&#x2026;" horiz-adv-x="1000" 
d="M167 154q32 0 54.5 -22t22.5 -55t-22.5 -55t-54.5 -22t-54.5 22t-22.5 55t22.5 55t54.5 22zM500 154q32 0 54.5 -22t22.5 -55t-22.5 -55t-54.5 -22t-54.5 22t-22.5 55t22.5 55t54.5 22zM833 154q32 0 54.5 -22t22.5 -55t-22.5 -55t-54.5 -22t-54.5 22t-22.5 55t22.5 55
t54.5 22z" />
    <glyph glyph-name="fraction" unicode="&#x2044;" horiz-adv-x="167" 
d="M272 668h62l-439 -686h-62z" />
    <glyph glyph-name="guilsinglleft" unicode="&#x2039;" horiz-adv-x="278" 
d="M205 312l-75 -119l73 -135l-19 -13l-126 102q-14 12 -27.5 21t-13.5 17q0 9 10.5 18t30.5 25l131 101z" />
    <glyph glyph-name="guilsinglright" unicode="&#x203a;" horiz-adv-x="278" 
d="M73 62l75 119l-73 135l19 13l126 -102q14 -12 27.5 -21t13.5 -17q0 -9 -10.5 -18t-30.5 -25l-131 -101z" />
    <glyph glyph-name="minus" unicode="&#x2212;" horiz-adv-x="600" 
d="M98 149v76h374v-76h-374z" />
    <glyph glyph-name="perthousand" unicode="&#x2030;" horiz-adv-x="1000" 
d="M146 668q66 0 107 -48t41 -139t-41 -139t-107 -48t-107 48t-41 139t41 139t107 48zM146 638q-30 0 -42 -36.5t-12 -120.5t12 -120.5t42 -36.5t42 36.5t12 120.5t-12 120.5t-42 36.5zM491 668h55l-378 -686h-56zM512 356q66 0 107 -48t41 -139t-41 -139t-107 -48t-107 48
t-41 139t41 139t107 48zM512 326q-30 0 -42 -36.5t-12 -120.5t12 -120.5t42 -36.5t42 36.5t12 120.5t-12 120.5t-42 36.5zM854 356q66 0 107 -48t41 -139t-41 -139t-107 -48t-107 48t-41 139t41 139t107 48zM854 326q-30 0 -42 -36.5t-12 -120.5t12 -120.5t42 -36.5t42 36.5
t12 120.5t-12 120.5t-42 36.5z" />
    <glyph glyph-name="trademark" unicode="&#x2122;" horiz-adv-x="990" 
d="M245 316q0 -14 0.5 -22.5t5.5 -13t15.5 -6.5t29.5 -4v-24h-202v24q20 2 30 4t15 6.5t5.5 13t0.5 22.5v309h-45q-30 0 -44.5 -18.5t-20.5 -44.5h-24v88h368v-88h-24q-6 26 -20.5 44.5t-44.5 18.5h-45v-309zM522 533h-2v-193q0 -19 1 -32t6.5 -21t16 -12t28.5 -5v-24h-134
v24q18 1 28 5t15.5 12t6.5 21t1 32v234q-11 24 -29 38t-41 14v24h145l138 -283l148 283h123v-24q-36 -2 -44.5 -12.5t-8.5 -33.5v-264q0 -14 0.5 -22.5t5.5 -13t15.5 -6.5t29.5 -4v-24h-201v24q19 2 29.5 4t15 6.5t5 13t0.5 22.5v218h-2l-145 -288h-14z" />
    <glyph glyph-name="gravecmb" unicode="&#x300;" horiz-adv-x="296" 
d="M176 444l-150 100q-14 9 -19 20t-5 25q0 15 13.5 28t33.5 13q17 0 33.5 -12t36.5 -35l115 -139h-58z" />
    <glyph glyph-name="acutecmb" unicode="&#x301;" horiz-adv-x="296" 
d="M74 444l115 139q20 23 36.5 35t33.5 12q20 0 33.5 -13t13.5 -28q0 -14 -5 -25t-19 -20l-150 -100h-58z" />
    <glyph glyph-name="circumflexcmb" unicode="&#x302;" horiz-adv-x="296" 
d="M194 620l117 -176h-55l-108 108l-107 -108h-54l115 176h92z" />
    <glyph glyph-name="tildecmb" unicode="&#x303;" horiz-adv-x="296" 
d="M-20 464q4 24 11.5 47t20 40.5t32 28t47.5 10.5q15 0 33.5 -8t37 -17t35.5 -17t29 -8q23 0 33.5 16t17.5 34h39q-3 -19 -11 -41t-21 -41t-30.5 -31.5t-39.5 -12.5q-24 0 -43.5 8t-38 17t-36.5 17t-38 8q-8 0 -15 -5t-12 -12.5t-8.5 -16.5t-5.5 -16h-37z" />
    <glyph glyph-name="dieresiscmb" unicode="&#x308;" horiz-adv-x="296" 
d="M247 582q27 0 45.5 -18.5t18.5 -45.5t-18.5 -45.5t-45.5 -18.5t-45.5 18.5t-18.5 45.5t18.5 45.5t45.5 18.5zM50 582q27 0 45.5 -18.5t18.5 -45.5t-18.5 -45.5t-45.5 -18.5t-45.5 18.5t-18.5 45.5t18.5 45.5t45.5 18.5z" />
    <glyph glyph-name="ringcmb" unicode="&#x30a;" horiz-adv-x="296" 
d="M148 446q-45 0 -75.5 30.5t-30.5 75.5t30.5 75.5t75.5 30.5t75.5 -30.5t30.5 -75.5t-30.5 -75.5t-75.5 -30.5zM148 494q26 0 42 17t16 41t-16 41t-42 17t-42 -17t-16 -41t16 -41t42 -17z" />
    <glyph glyph-name="caroncmb" unicode="&#x30c;" horiz-adv-x="296" 
d="M102 444l-117 176h55l108 -108l107 108h54l-115 -176h-92z" />
    <glyph glyph-name="cedillacmb" unicode="&#x327;" horiz-adv-x="296" 
d="M32 -168q14 -7 29 -11.5t32 -4.5q29 0 44.5 13t15.5 27q0 21 -14.5 31.5t-32.5 10.5q-7 0 -14.5 -2.5t-15.5 -4.5l-10 8l43 98h39l-28 -65q10 2 20 3t20 1q39 0 61 -18.5t22 -51.5q0 -44 -35.5 -66t-89.5 -22q-26 0 -52 3t-50 14z" />
    <glyph glyph-name="cyrbreve" horiz-adv-x="259" 
d="M129 433q-32 0 -61 7.5t-50.5 22t-34 34.5t-12.5 44q0 22 13 39t41 17q27 0 41.5 -14.5t14.5 -37.5q0 -11 -6.5 -24t-17.5 -21q8 -18 24.5 -28.5t47.5 -10.5t47.5 10.5t24.5 28.5q-11 8 -17.5 21t-6.5 24q0 23 14.5 37.5t41.5 14.5q28 0 41 -17t13 -39q0 -24 -12.5 -44
t-34 -34.5t-50.5 -22t-61 -7.5z" />
    <glyph glyph-name="cyrBreve" horiz-adv-x="259" 
d="M129 688q-36 0 -67.5 8.5t-55 24t-37.5 37.5t-14 49q0 24 14.5 42.5t45.5 18.5q29 0 45 -15.5t16 -41.5q0 -11 -7 -25.5t-19 -23.5q8 -20 26.5 -31.5t52.5 -11.5t52.5 11.5t26.5 31.5q-12 9 -19 23.5t-7 25.5q0 26 16 41.5t45 15.5q31 0 45.5 -18.5t14.5 -42.5
q0 -27 -14 -49t-37.5 -37.5t-55 -24t-67.5 -8.5z" />
    <glyph glyph-name="uni018F" unicode="&#x18f;" horiz-adv-x="793" 
d="M385 -21q-83 0 -146.5 26t-107.5 72t-67.5 108.5t-25.5 135.5h565v4q0 62 -17 112.5t-50 86t-82.5 55t-115.5 19.5q-47 0 -85.5 -14t-69 -36t-54 -49.5t-41.5 -54.5l-24 25q57 97 140.5 149t197.5 52q75 0 138 -24.5t109 -69.5t72 -108.5t26 -142.5q0 -81 -27 -145.5
t-75 -109t-114.5 -68t-145.5 -23.5zM388 18q91 0 147 68t66 193h-415q0 -68 17 -117.5t45.5 -81.5t65 -47t74.5 -15z" />
    <glyph glyph-name="uni01A2" unicode="&#x1a2;" horiz-adv-x="970" 
d="M602 -212q61 3 93.5 21t32.5 57v737q-14 -3 -29 -10t-27.5 -19t-21 -30t-8.5 -43v-468q-48 -20 -101 -36.5t-116 -16.5q-85 0 -155.5 23.5t-121.5 67.5t-79 108.5t-28 145.5t28 145.5t79 108.5t121.5 67.5t155.5 23.5q29 0 60 -5.5t64.5 -12.5t69.5 -12.5t75 -5.5t81 8
t87 28v-804q0 -39 25 -57t86 -21v-24q-45 2 -88 3t-88 1t-97.5 -1t-97.5 -3v24zM426 16q29 0 49 6.5t32 10.5v580q-16 8 -36 14.5t-45 6.5q-66 0 -112 -26.5t-74.5 -70t-41.5 -99t-13 -113.5t14 -113.5t43.5 -99t75 -70t108.5 -26.5z" />
    <glyph glyph-name="uni01A3" unicode="&#x1a3;" horiz-adv-x="668" 
d="M390 -216q14 0 29.5 2.5t28 9t21 18t8.5 29.5v493q-72 -14 -72 -79v-211q-33 -30 -83.5 -46t-98.5 -16q-45 0 -84 13.5t-68 39.5t-45.5 64t-16.5 86t18.5 86t49 64t71 39.5t85.5 13.5q30 0 56 -4.5t51.5 -10t52 -10t56.5 -4.5q31 0 67.5 6t81.5 23q-1 -25 -2 -49t-1 -47
v-451q0 -36 22 -47.5t51 -11.5v-20l-26 2t-28 1.5t-34 0.5h-45q-49 0 -85.5 -1t-59.5 -3v20zM227 22q14 0 32 5.5t28 13.5v290q-17 12 -32 16.5t-32 4.5q-42 0 -66 -42t-24 -114q0 -91 25.5 -132.5t68.5 -41.5z" />
    <glyph glyph-name="uni01B5" unicode="&#x1b5;" 
d="M21 17l240 307h-134v37h163l202 259q-92 0 -160 -4t-114.5 -22t-71.5 -53.5t-30 -98.5h-27q-1 6 -1 13.5v15.5v35q0 41 3.5 74.5t13.5 75.5q69 -1 134.5 -3.5t134.5 -2.5q72 0 142.5 1t142.5 5l11 -24q-61 -65 -116.5 -133t-109.5 -138h155v-37h-183
q-54 -72 -106.5 -142.5t-108.5 -140.5q20 -2 40.5 -3.5t40.5 -1.5q60 0 115.5 8.5t102 30t82.5 58.5t57 94h25q-14 -60 -35.5 -118t-50.5 -113q-69 2 -136 3t-136 1q-67 0 -134 -1t-134 -3z" />
    <glyph glyph-name="uni01B6" unicode="&#x1b6;" horiz-adv-x="463" 
d="M0 24l129 157h-77v30h101l112 135h-67q-64 0 -102.5 -24t-60.5 -86h-15l12 142q38 -2 79 -3t102 -1q60 0 102.5 1t80.5 3l11 -32l-111 -135h88v-30h-113l-125 -153h42q36 0 68 3.5t58.5 15.5t47 35t32.5 62h23l-26 -148q-38 2 -82 3t-96 1q-58 0 -108 -1t-93 -3z" />
    <glyph glyph-name="uni0259" unicode="&#x259;" horiz-adv-x="463" 
d="M208 -16q-48 0 -84.5 15.5t-61.5 43t-39.5 64.5t-18.5 79h289q0 63 -35 103.5t-101 40.5q-35 0 -68.5 -15t-56.5 -43l-24 26q39 45 91 68.5t109 23.5q49 0 88 -14.5t67 -41t43 -64t15 -83.5t-15 -83.5t-43 -64t-67 -41t-88 -14.5zM212 22q23 0 38.5 12.5t25 31.5t13.5 41
t4 41h-127q-20 0 -27 -5t-7 -23q0 -45 17.5 -71.5t62.5 -26.5z" />
    <glyph glyph-name="uni0400" unicode="&#x400;" 
d="M17 20q34 2 54.5 8.5t31.5 20t14.5 34.5t3.5 51v380q0 28 -3.5 49t-14.5 35t-31.5 21.5t-54.5 8.5v28q51 -2 102.5 -4t102.5 -2q97 0 193 2t196 4q-1 -9 -1 -18v-18v-35q0 -31 1 -61t7 -55l-22 -4q-24 76 -76.5 114.5t-152.5 38.5h-112v-243h52q26 0 51 6.5t46.5 21
t37.5 38.5t24 59h20q-1 -35 -2.5 -71t-1.5 -71q0 -36 1.5 -71.5t2.5 -71.5h-20q-8 37 -22.5 62t-35 40t-46 21.5t-55.5 6.5h-52v-297q24 -7 53.5 -10.5t65.5 -3.5q99 0 177.5 46t133.5 145l19 -14q-25 -54 -47.5 -106t-39.5 -109q-78 2 -155 3t-155 1h-93q-66 0 -117 -1
t-80 -3v24zM370 700l-150 100q-14 9 -19 20t-5 25q0 15 13.5 28t33.5 13q17 0 33.5 -12t36.5 -35l115 -139h-58z" />
    <glyph glyph-name="afii10023" unicode="&#x401;" 
d="M17 20q34 2 54.5 8.5t31.5 20t14.5 34.5t3.5 51v380q0 28 -3.5 49t-14.5 35t-31.5 21.5t-54.5 8.5v28q51 -2 102.5 -4t102.5 -2q97 0 193 2t196 4q-1 -9 -1 -18v-18v-35q0 -31 1 -61t7 -55l-22 -4q-24 76 -76.5 114.5t-152.5 38.5h-112v-243h52q26 0 51 6.5t46.5 21
t37.5 38.5t24 59h20q-1 -35 -2.5 -71t-1.5 -71q0 -36 1.5 -71.5t2.5 -71.5h-20q-8 37 -22.5 62t-35 40t-46 21.5t-55.5 6.5h-52v-297q24 -7 53.5 -10.5t65.5 -3.5q99 0 177.5 46t133.5 145l19 -14q-25 -54 -47.5 -106t-39.5 -109q-78 2 -155 3t-155 1h-93q-66 0 -117 -1
t-80 -3v24zM450 838q27 0 45.5 -18.5t18.5 -45.5t-18.5 -45.5t-45.5 -18.5t-45.5 18.5t-18.5 45.5t18.5 45.5t45.5 18.5zM253 838q27 0 45.5 -18.5t18.5 -45.5t-18.5 -45.5t-45.5 -18.5t-45.5 18.5t-18.5 45.5t18.5 45.5t45.5 18.5z" />
    <glyph glyph-name="afii10051" unicode="&#x402;" horiz-adv-x="861" 
d="M569 -13q-29 0 -57.5 4.5t-52 15.5t-38 31t-14.5 50q0 27 18.5 50.5t52.5 23.5q30 0 48.5 -19t18.5 -45q0 -11 -4.5 -22.5t-9.5 -17.5q-1 1 0.5 -4.5t7 -12t15 -12t24.5 -5.5q38 0 65 44t27 136q0 71 -38.5 108.5t-108.5 37.5q-37 0 -80 -12t-84 -28v-310h-60
q-46 0 -91 -1t-93 -3v24q38 3 60 9t33 19t14 34.5t3 55.5v474q-45 0 -75.5 -5t-51.5 -22t-35 -50t-25 -88h-26q2 19 3.5 38.5t3 43.5t2.5 55t1 72q75 -3 147.5 -4.5t147.5 -1.5t150 2t151 4q0 -35 0.5 -62.5t2 -49.5t2.5 -40.5t3 -34.5h-25q-12 50 -30 78.5t-44.5 43
t-60.5 18t-77 3.5h-30v-259q18 7 42.5 15.5t54.5 16t63.5 12.5t68.5 5q53 0 94 -18t69.5 -47t43 -64.5t14.5 -69.5q0 -64 -23.5 -105.5t-59.5 -66t-78 -34.5t-79 -10z" />
    <glyph glyph-name="afii10052" unicode="&#x403;" horiz-adv-x="627" 
d="M28 20q33 0 53.5 5t31.5 16t15 28t4 41v404q0 28 -3.5 49t-14.5 35t-31.5 21.5t-54.5 8.5v28q25 -1 62.5 -2t76.5 -2t76 -1.5t63 -0.5q75 0 148.5 2t142.5 4q0 -41 1 -72.5t2.5 -57t3 -45.5t3.5 -39h-22q-10 51 -31.5 84t-52.5 52t-69.5 26.5t-83.5 7.5h-82v-502
q0 -24 4 -41t16.5 -28t36 -16t61.5 -5v-24q-48 2 -95 3t-95 1q-42 0 -83 -1t-83 -3v24zM217 700l115 139q20 23 36.5 35t33.5 12q20 0 33.5 -13t13.5 -28q0 -14 -5 -25t-19 -20l-150 -100h-58z" />
    <glyph glyph-name="afii10053" unicode="&#x404;" horiz-adv-x="722" 
d="M384 -20q-75 0 -138 24.5t-109 69.5t-72 108.5t-26 142.5q0 78 27 141.5t75 108.5t115 70t147 25q28 0 66 -5.5t73 -12.5q22 -4 37.5 -7t27.5 -5t22 -3.5t19 -1.5q-1 -20 -1.5 -38.5t-0.5 -38.5q0 -21 0.5 -38.5t1 -34t2 -33.5t4.5 -38h-25q-6 38 -26 76t-51 68t-71 49
t-85 19q-57 0 -97.5 -24t-66.5 -62.5t-39 -85.5t-15 -93h291v-37h-291q2 -59 18.5 -109t48 -86t79 -56.5t111.5 -20.5q47 0 85.5 13.5t69 34.5t54 48t41.5 54l27 -21q-57 -97 -136 -149t-192 -52z" />
    <glyph glyph-name="afii10054" unicode="&#x405;" horiz-adv-x="611" 
d="M323 -20q-25 0 -50 4.5t-49.5 10t-49.5 10t-50 4.5q-7 0 -24.5 -4.5t-25.5 -8.5q-8 57 -17 113.5t-23 114.5h22q11 -37 36.5 -73t58.5 -64t72 -45.5t77 -17.5q33 0 60 5t46.5 16.5t30 31t10.5 49.5q0 40 -29 68t-72.5 50.5t-94 43.5t-94 48t-72.5 64t-29 91
q0 94 56.5 136.5t173.5 42.5q30 0 58 -4.5t53 -10.5t47 -10.5t41 -4.5h36q-1 -17 -2 -32t-1 -31q0 -29 2.5 -60t4.5 -60h-21q-10 37 -32 69t-52 56t-65 38t-71 14q-45 0 -76.5 -23t-31.5 -71q0 -36 28.5 -61t71.5 -45.5t92.5 -41.5t92.5 -50.5t71.5 -70.5t28.5 -102
q0 -43 -17 -78t-48 -59.5t-75 -38t-98 -13.5z" />
    <glyph glyph-name="afii10055" unicode="&#x406;" horiz-adv-x="407" 
d="M21 20q61 3 86 21t25 57v424q0 59 -22.5 83.5t-84.5 26.5v24q46 -2 91 -4t91 -2q86 0 173 6v-24q-35 -1 -57 -7.5t-34.5 -19t-17.5 -33t-5 -50.5v-424q0 -39 25 -57t86 -21v-24q-45 2 -88 3t-88 1t-90 -1t-90 -3v24z" />
    <glyph glyph-name="afii10056" unicode="&#x407;" horiz-adv-x="407" 
d="M21 20q61 3 86 21t25 57v424q0 59 -22.5 83.5t-84.5 26.5v24q46 -2 91 -4t91 -2q86 0 173 6v-24q-35 -1 -57 -7.5t-34.5 -19t-17.5 -33t-5 -50.5v-424q0 -39 25 -57t86 -21v-24q-45 2 -88 3t-88 1t-90 -1t-90 -3v24zM302 838q27 0 45.5 -18.5t18.5 -45.5t-18.5 -45.5
t-45.5 -18.5t-45.5 18.5t-18.5 45.5t18.5 45.5t45.5 18.5zM105 838q27 0 45.5 -18.5t18.5 -45.5t-18.5 -45.5t-45.5 -18.5t-45.5 18.5t-18.5 45.5t18.5 45.5t45.5 18.5z" />
    <glyph glyph-name="afii10057" unicode="&#x408;" horiz-adv-x="630" 
d="M250 -8q-34 0 -73.5 8t-73.5 26t-56.5 46.5t-22.5 69.5q0 14 4.5 28t13.5 25t22.5 18t30.5 7q34 0 55.5 -19t21.5 -54q0 -26 -15 -44q15 -35 43 -57t67 -22q30 0 51 15t33.5 37.5t18 50t5.5 52.5v370q0 48 -36.5 66.5t-97.5 16.5v24q51 -2 100.5 -4t100.5 -2q39 0 77.5 2
t77.5 4v-24q-48 -2 -68 -17t-20 -56v-401q0 -27 -14.5 -56.5t-46 -53.5t-80.5 -40t-118 -16z" />
    <glyph glyph-name="afii10058" unicode="&#x409;" horiz-adv-x="1038" 
d="M101 -15q-25 0 -44 8t-31.5 21t-19 29t-6.5 32q0 35 22 55t51 20t48 -18t22 -41q14 3 27 13t23.5 30.5t18.5 53.5t14 83l8 74t6 70t3.5 60.5t1.5 45.5q0 27 -4.5 46.5t-17 33t-35 21t-58.5 10.5v24q42 -2 91.5 -4t91.5 -2h252q43 0 85 2l84 4v-24q-34 -3 -55 -9
t-33 -18.5t-16.5 -33.5t-4.5 -55v-163q31 12 69.5 17t71.5 5q40 0 82 -12.5t76 -36.5t55.5 -59t21.5 -80q0 -60 -22 -98.5t-58 -60t-81.5 -30t-92.5 -8.5q-51 0 -102.5 5t-99.5 5q-43 0 -84.5 -1t-84.5 -3v24q30 2 51.5 6t36 14t21 28.5t6.5 49.5v491q-14 1 -33.5 3t-47.5 2
q-32 0 -52.5 -4.5t-33.5 -16.5t-19.5 -32.5t-9.5 -52.5l-18 -199q-1 -9 -3.5 -33t-7 -54t-10.5 -62t-14 -57q-12 -37 -29 -60t-36.5 -36t-39 -17.5t-36.5 -4.5zM720 30q70 0 104 42t34 114q0 66 -39 108t-108 42q-19 0 -44.5 -5t-41.5 -12v-271q20 -8 46 -13t49 -5z" />
    <glyph glyph-name="afii10059" unicode="&#x40a;" horiz-adv-x="1135" 
d="M19 20q30 2 50 6t32 14t17 28.5t5 49.5v390q0 35 -2.5 57.5t-13 36t-31 20t-55.5 10.5v24q85 -6 173 -6q86 0 172 6v-24q-38 -4 -59.5 -10.5t-32.5 -20t-14 -36t-3 -57.5v-132h332v132q0 35 -2.5 57.5t-13.5 36t-32.5 20t-59.5 10.5v24q88 -6 176 -6q43 0 87.5 2t86.5 4
v-24q-34 -3 -55 -9t-33 -18.5t-16.5 -33.5t-4.5 -55v-140h141q40 0 82 -13t76 -37t55.5 -59t21.5 -80q0 -60 -22 -98.5t-58 -60t-81.5 -30t-92.5 -8.5q-51 0 -102.5 5t-99.5 5q-43 0 -79 -1t-79 -3v24q30 2 50 6t32.5 14t17.5 28.5t5 49.5v219h-332v-219q0 -32 5 -50.5
t17.5 -28.5t33 -13.5t50.5 -5.5v-24q-45 2 -87.5 3t-87.5 1q-42 0 -84.5 -1t-84.5 -3v24zM817 30q70 0 104 42t34 114q0 33 -10 60.5t-29 47.5t-46.5 31.5t-61.5 11.5h-86v-289q20 -8 46 -13t49 -5z" />
    <glyph glyph-name="afii10060" unicode="&#x40b;" horiz-adv-x="891" 
d="M115 20q38 3 60 9t33 19t14 34.5t3 55.5v474q-45 0 -75.5 -5t-51.5 -22t-35 -50t-25 -88h-26q2 19 3.5 38.5t3 43.5t2.5 55t1 72q75 -2 147.5 -4t147.5 -2t150 2t151 4q0 -35 0.5 -62.5t2 -49.5t2.5 -40.5t3 -34.5h-25q-12 50 -30 78.5t-44.5 43t-60.5 18t-77 3.5h-30
v-259q18 7 42.5 16t54.5 16.5t63.5 13t68.5 5.5q61 0 100 -18.5t61.5 -45t31 -55.5t8.5 -50v-93q0 -35 2.5 -58t13 -36.5t31 -19.5t55.5 -8v-24q-43 3 -86.5 3.5t-87.5 0.5t-86.5 -0.5t-85.5 -3.5v24q37 4 59 10.5t33 19.5t14 35t3 57v69q0 26 -4 51t-17.5 44.5t-39.5 31.5
t-70 12q-37 0 -79.5 -12t-84.5 -29v-171q0 -34 3 -55.5t14 -34.5t33 -19t60 -9v-24q-42 2 -84.5 3t-85.5 1q-46 0 -91 -1t-93 -3v24z" />
    <glyph glyph-name="afii10061" unicode="&#x40c;" horiz-adv-x="782" 
d="M19 20q30 2 50 6t32 14t17 28.5t5 49.5v390q0 35 -2.5 57.5t-13 36t-31 20t-55.5 10.5v24q85 -6 173 -6q86 0 172 6v-24q-36 -3 -57.5 -10.5t-33 -22t-15 -37t-3.5 -54.5v-154h61q50 0 80.5 18t51 46t34 61.5t28.5 64.5q25 58 52.5 89t72.5 31t63.5 -21.5t18.5 -47.5
t-17 -49t-50 -23q-24 0 -36.5 9t-22.5 19q-15 -5 -33 -24.5t-32 -50.5q-17 -37 -32.5 -59.5t-31.5 -41.5l169 -251q29 -44 72.5 -72t96.5 -32v-24q-43 2 -81 3t-81 1h-94q-5 13 -12 29t-18.5 37.5t-29.5 50.5t-43 67q-33 50 -55 77t-37.5 40t-29 15t-29.5 2h-35v-200
q0 -32 5 -50.5t17.5 -28.5t33 -13.5t50.5 -5.5v-24q-45 2 -87.5 3t-87.5 1q-42 0 -84.5 -1t-84.5 -3v24zM285 700l115 139q20 23 36.5 35t33.5 12q20 0 33.5 -13t13.5 -28q0 -14 -5 -25t-19 -20l-150 -100h-58z" />
    <glyph glyph-name="uni040D" unicode="&#x40d;" horiz-adv-x="862" 
d="M19 20q30 2 50 6t32 14t17 28.5t5 49.5v390q0 35 -2.5 57.5t-13 36t-31 20t-55.5 10.5v24q85 -6 173 -6q86 0 172 6v-24q-38 -4 -59.5 -10.5t-32.5 -20t-14 -36t-3 -57.5v-355l339 416q-3 16 -9.5 26.5t-18.5 17.5t-31 11.5t-46 7.5v24q88 -6 176 -6q86 0 172 6v-24
q-37 -4 -58 -10.5t-31.5 -20t-13.5 -36t-3 -57.5v-390q0 -31 5 -49.5t17 -28.5t32.5 -14t51.5 -6v-24q-43 2 -86.5 3t-86.5 1t-86 -1t-86 -3v24q30 2 50 6t32.5 14t17.5 28.5t5 49.5v388l-341 -418q3 -21 9.5 -33.5t19 -20t31.5 -10.5t45 -4v-24q-45 2 -87.5 3t-87.5 1
q-42 0 -84.5 -1t-84.5 -3v24zM469 700l-150 100q-14 9 -19 20t-5 25q0 15 13.5 28t33.5 13q17 0 33.5 -12t36.5 -35l115 -139h-58z" />
    <glyph glyph-name="afii10062" unicode="&#x40e;" horiz-adv-x="722" 
d="M191 -10q-55 0 -83.5 27.5t-28.5 67.5q0 26 19 48.5t53 22.5q22 0 36.5 -8.5t23.5 -20t13 -24t4 -21.5q21 0 44.5 8t46.5 33q10 10 10 25q0 12 -7 26l-216 378q-13 23 -25.5 36.5t-27 22t-32 13t-41.5 8.5v24q16 -2 38.5 -3t47 -1.5t47.5 -1t40 -0.5q16 0 39 0.5t47.5 1
t47.5 1.5t39 3v-24q-40 -8 -56 -22t-16 -35q0 -20 11 -44.5t28 -55.5l120 -214l93 185q23 47 36 78t13 52q0 23 -16.5 35.5t-51.5 20.5v24q12 -2 30 -3t37 -1.5t37 -1t31 -0.5q25 0 58 1.5t58 4.5v-24q-30 -5 -56.5 -24.5t-49 -45.5t-40 -53t-27.5 -46l-153 -276
q-34 -62 -64.5 -100t-58 -60t-52 -29.5t-46.5 -7.5zM399 688q-36 0 -67.5 8.5t-55 24t-37.5 37.5t-14 49q0 24 14.5 42.5t45.5 18.5q29 0 45 -15.5t16 -41.5q0 -11 -7 -25.5t-19 -23.5q8 -20 26.5 -31.5t52.5 -11.5t52.5 11.5t26.5 31.5q-12 9 -19 23.5t-7 25.5
q0 26 16 41.5t45 15.5q31 0 45.5 -18.5t14.5 -42.5q0 -27 -14 -49t-37.5 -37.5t-55 -24t-67.5 -8.5z" />
    <glyph glyph-name="afii10145" unicode="&#x40f;" horiz-adv-x="842" 
d="M407 -183q-9 41 -17.5 74.5t-24 57.5t-40.5 37.5t-67 13.5h-64q-44 0 -87 -0.5t-86 -3.5v24q35 2 55.5 8t31 19.5t13 36.5t2.5 58v390q0 31 -4.5 49.5t-16.5 28.5t-31.5 14t-49.5 6v24q42 -2 83.5 -3t83.5 -1q45 0 87.5 1t87.5 3v-24q-30 -2 -50.5 -5.5t-33 -13.5
t-17.5 -29t-5 -50v-488q38 -2 77 -5t77 -3q42 0 85 3t83 5v488q0 31 -5 49.5t-17.5 28.5t-32.5 14t-50 6v24q43 -2 86 -3t86 -1t86.5 1t86.5 3v-24q-31 -2 -51.5 -7.5t-32.5 -17t-17 -29t-5 -44.5v-390q0 -35 2 -58t12.5 -36.5t32 -19.5t59.5 -8v-24q-43 3 -85.5 3.5
t-86.5 0.5h-69q-42 0 -67 -13.5t-40.5 -37.5t-24 -57.5t-17.5 -74.5h-22v0z" />
    <glyph glyph-name="afii10017" unicode="&#x410;" 
d="M-24 20q28 3 46.5 11.5t31 22.5t22 32.5t19.5 42.5l196 457l-18 48q32 6 63 14.5t60 21.5l217 -589q12 -32 42 -46.5t61 -14.5v-24q-29 2 -66.5 3t-72.5 1h-42q-42 0 -83.5 -1t-83.5 -3v24q52 4 77 17t25 39q0 9 -3.5 23t-9 29t-11 29t-9.5 24l-34 99h-199l-51 -141
q-5 -14 -10.5 -27t-5.5 -33q0 -12 8.5 -22t22 -17.5t28.5 -12.5t29 -7v-24q-32 2 -64.5 3t-64.5 1q-30 0 -60 -1t-60 -3v24zM389 318l-82 234h-2l-87 -234h171z" />
    <glyph glyph-name="afii10018" unicode="&#x411;" horiz-adv-x="687" 
d="M19 20q34 3 54.5 7.5t31.5 16t14.5 33t3.5 57.5v382q0 34 -4 55t-15 33.5t-31 18.5t-52 9v24q22 -1 48 -2t53 -2t53 -1.5t49 -0.5q48 0 93 0.5t90 1.5t90.5 2t95.5 2q0 -14 1 -38t2.5 -51t4 -53.5t4.5 -44.5l-22 -4q-12 36 -29 64.5t-42.5 48t-61.5 30t-86 10.5h-107
v-259q15 6 35.5 10t41.5 7t41.5 4t37.5 1q40 0 82 -14t76.5 -40t56 -62.5t21.5 -81.5q0 -59 -19.5 -96t-53.5 -59t-80.5 -30t-100.5 -8q-25 0 -49.5 1.5t-50.5 3.5t-55 3.5t-62 1.5q-48 0 -89 -1t-70 -3v24zM367 29q70 0 104 44t34 116q0 33 -10 61t-29 48.5t-46.5 32
t-61.5 11.5q-9 0 -23 -1.5t-29 -3.5t-28 -5.5t-21 -6.5v-277q20 -8 49 -13.5t61 -5.5z" />
    <glyph glyph-name="afii10019" unicode="&#x412;" 
d="M19 20q36 3 57 9t31.5 19t13.5 34.5t3 55.5v372q0 26 -4.5 47.5t-16 36.5t-32 24t-52.5 10v22q93 0 185.5 3t186.5 3q40 0 79.5 -11.5t71.5 -34.5t52 -57t20 -79q0 -48 -31 -83t-74 -50v-2q30 -6 58.5 -21.5t50.5 -38t35 -51t13 -61.5q0 -50 -18.5 -84t-51.5 -54.5
t-77.5 -29.5t-96.5 -9q-32 0 -89.5 5t-152.5 5h-54.5t-42 -0.5t-34 -1.5t-30.5 -2v24zM358 30q70 0 114 37.5t44 109.5q0 40 -19.5 76.5t-49.5 61.5q-46 -11 -85 -11q-35 0 -59.5 3.5t-44.5 11.5v-268q24 -11 49 -16t51 -5zM338 340q31 0 55.5 10.5t41.5 29t26 43t9 53.5
q0 72 -40 106t-109 34q-16 0 -31 -1t-32 -2v-259q17 -6 36.5 -10t43.5 -4z" />
    <glyph glyph-name="afii10020" unicode="&#x413;" horiz-adv-x="627" 
d="M28 20q33 0 53.5 5t31.5 16t15 28t4 41v404q0 28 -3.5 49t-14.5 35t-31.5 21.5t-54.5 8.5v28q25 -1 62.5 -2t76.5 -2t76 -1.5t63 -0.5q75 0 148.5 2t142.5 4q0 -41 1 -72.5t2.5 -57t3 -45.5t3.5 -39h-22q-10 51 -31.5 84t-52.5 52t-69.5 26.5t-83.5 7.5h-82v-502
q0 -24 4 -41t16.5 -28t36 -16t61.5 -5v-24q-48 2 -95 3t-95 1q-42 0 -83 -1t-83 -3v24z" />
    <glyph glyph-name="afii10021" unicode="&#x414;" horiz-adv-x="750" 
d="M0 -179q2 20 4.5 46t4 54.5t2.5 57.5t1 55q44 5 74 29t51 59.5t34.5 79t24.5 88.5q16 66 21 114t7 88q0 42 -4 67.5t-16.5 40.5t-35 21t-58.5 9v24q42 -2 86.5 -3t86.5 -1h270q43 0 86.5 1t86.5 3v-24q-31 -2 -51.5 -7.5t-32.5 -17t-17 -29t-5 -44.5v-359q0 -42 2 -67.5
t12.5 -40t33 -21t62.5 -10.5q0 -26 1 -55t2.5 -57.5t4 -54.5t4.5 -46l-24 -4q-26 97 -87.5 140t-161.5 43h-196q-100 0 -161.5 -43t-87.5 -140zM337 36q41 0 74.5 2t74.5 6v564q-8 0 -21 1t-27 2t-28 1.5t-23 0.5q-20 0 -38.5 -1t-33.5 -7t-24.5 -18t-12.5 -34l-9 -80
q-12 -106 -24.5 -178t-26.5 -117q-14 -44 -23 -70t-9 -40t10 -19.5t34 -7.5q29 -2 51.5 -3.5t55.5 -1.5z" />
    <glyph glyph-name="afii10022" unicode="&#x415;" 
d="M17 20q34 2 54.5 8.5t31.5 20t14.5 34.5t3.5 51v380q0 28 -3.5 49t-14.5 35t-31.5 21.5t-54.5 8.5v28q51 -2 102.5 -4t102.5 -2q97 0 193 2t196 4q-1 -9 -1 -18v-18v-35q0 -31 1 -61t7 -55l-22 -4q-24 76 -76.5 114.5t-152.5 38.5h-112v-243h52q26 0 51 6.5t46.5 21
t37.5 38.5t24 59h20q-1 -35 -2.5 -71t-1.5 -71q0 -36 1.5 -71.5t2.5 -71.5h-20q-8 37 -22.5 62t-35 40t-46 21.5t-55.5 6.5h-52v-297q24 -7 53.5 -10.5t65.5 -3.5q99 0 177.5 46t133.5 145l19 -14q-25 -54 -47.5 -106t-39.5 -109q-78 2 -155 3t-155 1h-93q-66 0 -117 -1
t-80 -3v24z" />
    <glyph glyph-name="afii10024" unicode="&#x416;" horiz-adv-x="1144" 
d="M-20 20q53 4 96.5 32t72.5 72l169 251q-16 19 -26.5 41.5t-27.5 59.5q-14 31 -32 50.5t-33 24.5q-10 -10 -22 -17t-36 -7q-17 0 -29 7t-20 17.5t-12 22.5t-4 23q0 26 18.5 46.5t60.5 20.5q45 0 72.5 -31t52.5 -89q15 -31 27 -64.5t30.5 -61.5t47.5 -46t79 -18h41v154
q0 32 -3.5 54.5t-15 37t-33 22t-57.5 10.5v24q85 -6 172 -6q44 0 90.5 1.5t89.5 4.5v-24q-36 -3 -57.5 -10.5t-33 -22t-15 -37t-3.5 -54.5v-154h41q50 0 79 18t47.5 46t30.5 61.5t27 64.5q25 58 52.5 89t72.5 31q42 0 60.5 -20.5t18.5 -46.5q0 -11 -4 -23t-12 -22.5
t-20.5 -17.5t-28.5 -7q-24 0 -36 7t-22 17q-15 -5 -33 -24.5t-32 -50.5q-17 -37 -27.5 -59.5t-26.5 -41.5l169 -251q29 -44 72.5 -72t96.5 -32v-24q-43 2 -81 3t-81 1h-94q-5 13 -12 29t-18.5 37.5t-29.5 50.5t-43 67q-33 50 -55 77t-37.5 40t-29 15t-29.5 2h-15v-200
q0 -32 5 -50.5t17.5 -28.5t33 -13.5t50.5 -5.5v-24q-45 2 -85.5 3t-85.5 1t-87.5 -1t-87.5 -3v24q30 2 50.5 5.5t33 13.5t17.5 28.5t5 50.5v200h-15q-17 0 -30 -2t-28.5 -15t-37.5 -40t-55 -77q-26 -38 -43.5 -67t-29 -50.5t-19 -37.5t-11.5 -29h-94q-43 0 -81 -1t-81 -3v24
z" />
    <glyph glyph-name="afii10025" unicode="&#x417;" horiz-adv-x="624" 
d="M285 -20q-62 0 -110 13t-81.5 36.5t-51 55t-17.5 68.5q0 14 5.5 29t15.5 27t25 19.5t33 7.5q34 0 53 -21t19 -44q0 -19 -8.5 -36.5t-20.5 -24.5q3 -13 10.5 -28t23 -28t39 -21.5t58.5 -8.5q78 0 117 43t39 116q0 47 -16.5 75t-42.5 43t-58 19.5t-62 4.5h-41v40h31
q39 0 69.5 7.5t52 24.5t32.5 44.5t11 67.5q0 59 -32 90.5t-91 31.5q-39 0 -70.5 -18t-56.5 -46t-44 -62t-32 -66l-19 3q5 43 7 95.5t2 97.5q25 0 49.5 5.5t53 12t63.5 12t80 5.5q60 0 104.5 -14t73.5 -37.5t43.5 -52.5t14.5 -59q0 -33 -11 -59t-29 -45.5t-42 -32.5t-51 -19
q28 -9 57 -21.5t52 -33.5t37.5 -51.5t14.5 -73.5q0 -54 -21.5 -90.5t-61 -59t-94.5 -32t-122 -9.5z" />
    <glyph glyph-name="afii10026" unicode="&#x418;" horiz-adv-x="862" 
d="M19 20q30 2 50 6t32 14t17 28.5t5 49.5v390q0 35 -2.5 57.5t-13 36t-31 20t-55.5 10.5v24q85 -6 173 -6q86 0 172 6v-24q-38 -4 -59.5 -10.5t-32.5 -20t-14 -36t-3 -57.5v-355l339 416q-3 16 -9.5 26.5t-18.5 17.5t-31 11.5t-46 7.5v24q88 -6 176 -6q86 0 172 6v-24
q-37 -4 -58 -10.5t-31.5 -20t-13.5 -36t-3 -57.5v-390q0 -31 5 -49.5t17 -28.5t32.5 -14t51.5 -6v-24q-43 2 -86.5 3t-86.5 1t-86 -1t-86 -3v24q30 2 50 6t32.5 14t17.5 28.5t5 49.5v388l-341 -418q3 -21 9.5 -33.5t19 -20t31.5 -10.5t45 -4v-24q-45 2 -87.5 3t-87.5 1
q-42 0 -84.5 -1t-84.5 -3v24z" />
    <glyph glyph-name="afii10027" unicode="&#x419;" horiz-adv-x="862" 
d="M19 20q30 2 50 6t32 14t17 28.5t5 49.5v390q0 35 -2.5 57.5t-13 36t-31 20t-55.5 10.5v24q85 -6 173 -6q86 0 172 6v-24q-38 -4 -59.5 -10.5t-32.5 -20t-14 -36t-3 -57.5v-355l339 416q-3 16 -9.5 26.5t-18.5 17.5t-31 11.5t-46 7.5v24q88 -6 176 -6q86 0 172 6v-24
q-37 -4 -58 -10.5t-31.5 -20t-13.5 -36t-3 -57.5v-390q0 -31 5 -49.5t17 -28.5t32.5 -14t51.5 -6v-24q-43 2 -86.5 3t-86.5 1t-86 -1t-86 -3v24q30 2 50 6t32.5 14t17.5 28.5t5 49.5v388l-341 -418q3 -21 9.5 -33.5t19 -20t31.5 -10.5t45 -4v-24q-45 2 -87.5 3t-87.5 1
q-42 0 -84.5 -1t-84.5 -3v24zM416 688q-36 0 -67.5 8.5t-55 24t-37.5 37.5t-14 49q0 24 14.5 42.5t45.5 18.5q29 0 45 -15.5t16 -41.5q0 -11 -7 -25.5t-19 -23.5q8 -20 26.5 -31.5t52.5 -11.5t52.5 11.5t26.5 31.5q-12 9 -19 23.5t-7 25.5q0 26 16 41.5t45 15.5
q31 0 45.5 -18.5t14.5 -42.5q0 -27 -14 -49t-37.5 -37.5t-55 -24t-67.5 -8.5z" />
    <glyph glyph-name="afii10028" unicode="&#x41a;" horiz-adv-x="782" 
d="M19 20q30 2 50 6t32 14t17 28.5t5 49.5v390q0 35 -2.5 57.5t-13 36t-31 20t-55.5 10.5v24q85 -6 173 -6q86 0 172 6v-24q-36 -3 -57.5 -10.5t-33 -22t-15 -37t-3.5 -54.5v-154h61q50 0 80.5 18t51 46t34 61.5t28.5 64.5q25 58 52.5 89t72.5 31t63.5 -21.5t18.5 -47.5
t-17 -49t-50 -23q-24 0 -36.5 9t-22.5 19q-15 -5 -33 -24.5t-32 -50.5q-17 -37 -32.5 -59.5t-31.5 -41.5l169 -251q29 -44 72.5 -72t96.5 -32v-24q-43 2 -81 3t-81 1h-94q-5 13 -12 29t-18.5 37.5t-29.5 50.5t-43 67q-33 50 -55 77t-37.5 40t-29 15t-29.5 2h-35v-200
q0 -32 5 -50.5t17.5 -28.5t33 -13.5t50.5 -5.5v-24q-45 2 -87.5 3t-87.5 1q-42 0 -84.5 -1t-84.5 -3v24z" />
    <glyph glyph-name="afii10029" unicode="&#x41b;" horiz-adv-x="754" 
d="M101 -15q-25 0 -44 8t-31.5 21t-19 29t-6.5 32q0 35 22 55t51 20t48 -18t22 -41q14 3 27 13t23.5 30.5t18.5 53.5t14 83l8 74t6 70t3.5 60.5t1.5 45.5q0 27 -4.5 46.5t-17 33t-35 21t-58.5 10.5v24q42 -2 91.5 -4t91.5 -2h246q86 0 172 6v-24q-37 -4 -58 -10.5t-31.5 -20
t-13.5 -36t-3 -57.5v-390q0 -31 5 -49.5t17 -28.5t32.5 -14t51.5 -6v-24q-43 2 -86.5 3t-86.5 1t-91 -1t-91 -3v24q30 2 51.5 6t36 14t21 28.5t6.5 49.5v491q-13 2 -33 3.5t-48 1.5q-32 0 -52.5 -4.5t-33.5 -16.5t-19.5 -32.5t-9.5 -52.5l-18 -199q-1 -9 -3.5 -33t-7 -54
t-10.5 -62t-14 -57q-12 -37 -29 -60t-36.5 -36t-39 -17.5t-36.5 -4.5z" />
    <glyph glyph-name="afii10030" unicode="&#x41c;" horiz-adv-x="944" 
d="M-8 20q30 3 49.5 13.5t31 27t17.5 39t10 49.5q17 106 29.5 211.5t32.5 211.5q-17 26 -45 40.5t-57 19.5v24q42 -2 84.5 -4t84.5 -2q36 0 73 1t73 5v-24q-23 -3 -41 -12.5t-18 -36.5q0 -11 14.5 -45t36 -83.5t48 -110.5t50.5 -126q7 11 21 41t31 69.5t35 83t32.5 81.5
t24 65.5t9.5 34.5q0 9 -9 16t-21.5 11.5t-25.5 7.5t-20 4v24l78 -4t78 -2q88 0 177 6v-24q-48 -4 -74.5 -24t-26.5 -71q0 -11 5 -46.5t12.5 -83.5t16 -102t17 -100.5t14.5 -78.5t8 -37q7 -19 15.5 -31t19.5 -19.5t25.5 -11.5t34.5 -7v-24q-38 2 -76.5 3t-76.5 1
q-51 0 -101.5 -1t-101.5 -3v24q22 2 44.5 5t40.5 12t29.5 26t11.5 47q0 4 -4 34.5t-11 74t-15 95t-16 98.5t-15 84t-11 52h-2q-21 -70 -49.5 -137.5t-57 -134.5t-53 -135t-38.5 -139h-27q-15 56 -39 123t-53 138t-61.5 142.5t-64.5 136.5h-2q-5 -43 -12 -81.5t-13.5 -81
t-11 -93t-4.5 -117.5q0 -35 2.5 -60.5t13.5 -43t33 -28.5t61 -17v-24q-33 2 -65.5 3t-65.5 1q-35 0 -69.5 -1t-69.5 -3v24z" />
    <glyph glyph-name="afii10031" unicode="&#x41d;" horiz-adv-x="852" 
d="M19 20q30 2 50 6t32 14t17 28.5t5 49.5v390q0 35 -2.5 57.5t-13 36t-31 20t-55.5 10.5v24q85 -6 173 -6q86 0 172 6v-24q-38 -4 -59.5 -10.5t-32.5 -20t-14 -36t-3 -57.5v-132h332v132q0 35 -2.5 57.5t-13.5 36t-32.5 20t-59.5 10.5v24q88 -6 176 -6q86 0 172 6v-24
q-37 -4 -58 -10.5t-31.5 -20t-13.5 -36t-3 -57.5v-390q0 -31 5 -49.5t17 -28.5t32.5 -14t51.5 -6v-24q-43 2 -86.5 3t-86.5 1t-86 -1t-86 -3v24q30 2 50 6t32.5 14t17.5 28.5t5 49.5v216h-332v-216q0 -32 5 -50.5t17.5 -28.5t33 -13.5t50.5 -5.5v-24q-45 2 -87.5 3t-87.5 1
q-42 0 -84.5 -1t-84.5 -3v24z" />
    <glyph glyph-name="afii10032" unicode="&#x41e;" horiz-adv-x="852" 
d="M422 -20q-85 0 -155.5 23.5t-121.5 67.5t-79 108.5t-28 145.5t28 145.5t79 108.5t121.5 67.5t155.5 23.5t155.5 -23.5t121.5 -67.5t79 -108.5t28 -145.5t-28 -145.5t-79 -108.5t-121.5 -67.5t-155.5 -23.5zM422 16q62 0 107.5 25t75 68t43.5 98.5t14 117.5q0 61 -14 117
t-43.5 99t-75 68t-107.5 25t-107.5 -25t-75 -68t-43.5 -99t-14 -117q0 -62 14 -117.5t43.5 -98.5t75 -68t107.5 -25z" />
    <glyph glyph-name="afii10033" unicode="&#x41f;" horiz-adv-x="842" 
d="M19 20q30 2 50 6t32 14t17 28.5t5 49.5v390q0 35 -2.5 57.5t-13 36t-31 20t-55.5 10.5v24q85 -6 173 -6h453q86 0 172 6v-24q-37 -4 -58 -10.5t-31.5 -20t-13.5 -36t-3 -57.5v-390q0 -31 5 -49.5t17 -28.5t32.5 -14t51.5 -6v-24q-43 2 -86.5 3t-86.5 1t-86 -1t-86 -3v24
q30 2 50 6t32.5 14t17.5 28.5t5 49.5v489q-40 2 -83 4t-85 2q-38 0 -77 -2t-77 -4v-489q0 -32 5 -50.5t17.5 -28.5t33 -13.5t50.5 -5.5v-24q-45 2 -87.5 3t-87.5 1q-42 0 -84.5 -1t-84.5 -3v24z" />
    <glyph glyph-name="afii10034" unicode="&#x420;" horiz-adv-x="648" 
d="M28 20q37 3 58.5 9t32 19t13.5 34.5t3 55.5v378q0 34 -4 55t-15.5 33.5t-32.5 18.5t-55 9v24q29 -2 66.5 -4t85.5 -2t94.5 5t97.5 5q47 0 91 -12t78 -36t54.5 -61.5t20.5 -88.5q0 -45 -18.5 -77.5t-49 -54.5t-69.5 -32.5t-79 -10.5q-33 0 -66.5 5t-64.5 17v-171
q0 -34 3 -55.5t14 -34.5t33 -19t61 -9v-24q-43 2 -85.5 3t-85.5 1q-46 0 -91 -1t-90 -3v24zM345 323q68 0 102.5 42.5t34.5 107.5q0 32 -7 59.5t-22 48t-39.5 32t-59.5 11.5q-46 0 -85 -16v-268q16 -7 36.5 -12t39.5 -5z" />
    <glyph glyph-name="afii10035" unicode="&#x421;" horiz-adv-x="722" 
d="M384 -20q-75 0 -138 24.5t-109 69.5t-72 108.5t-26 142.5q0 78 27 141.5t75 108.5t115 70t147 25q28 0 66 -5.5t73 -12.5q36 -7 63 -12.5t32 -5.5q9 0 11 1q0 -20 -1 -38.5t-1 -38.5q0 -42 3 -83.5t8 -83.5h-25q-7 46 -28 88.5t-52 75t-71 52t-85 19.5q-60 0 -101 -27
t-66 -68.5t-35.5 -92.5t-10.5 -99q0 -62 17 -114.5t50 -91t82.5 -60t115.5 -21.5q47 0 85.5 14t69 36t54 49.5t41.5 54.5l24 -25q-57 -97 -140.5 -149t-197.5 -52z" />
    <glyph glyph-name="afii10036" unicode="&#x422;" horiz-adv-x="648" 
d="M145 20q38 3 60 9t33 19t14 34.5t3 55.5v474q-45 0 -80 -5t-62 -22t-45.5 -50t-29.5 -88h-26q2 19 3.5 38.5t3 43.5t2.5 55t1 72q75 -2 147.5 -4t147.5 -2t150 2t151 4q0 -41 1 -72t2.5 -55t3 -43.5t3.5 -38.5h-22q-11 55 -29.5 88t-45.5 50t-62 22t-80 5v-474
q0 -34 3 -55.5t14 -34.5t33 -19t60 -9v-24q-42 2 -84.5 3t-85.5 1q-46 0 -91 -1t-93 -3v24z" />
    <glyph glyph-name="afii10037" unicode="&#x423;" horiz-adv-x="722" 
d="M191 -10q-55 0 -83.5 27.5t-28.5 67.5q0 26 19 48.5t53 22.5q22 0 36.5 -8.5t23.5 -20t13 -24t4 -21.5q21 0 44.5 8t46.5 33q10 10 10 25q0 12 -7 26l-216 378q-13 23 -25.5 36.5t-27 22t-32 13t-41.5 8.5v24q16 -2 38.5 -3t47 -1.5t47.5 -1t40 -0.5q16 0 39 0.5t47.5 1
t47.5 1.5t39 3v-24q-40 -8 -56 -22t-16 -35q0 -20 11 -44.5t28 -55.5l120 -214l93 185q23 47 36 78t13 52q0 23 -16.5 35.5t-51.5 20.5v24q12 -2 30 -3t37 -1.5t37 -1t31 -0.5q25 0 58 1.5t58 4.5v-24q-30 -5 -56.5 -24.5t-49 -45.5t-40 -53t-27.5 -46l-153 -276
q-34 -62 -64.5 -100t-58 -60t-52 -29.5t-46.5 -7.5z" />
    <glyph glyph-name="afii10038" unicode="&#x424;" horiz-adv-x="940" 
d="M288 4q61 3 86 21t25 57v7q-51 -16 -124 -16q-37 0 -79.5 14t-79 45t-60.5 80t-24 119q0 66 25 112.5t64 76t86.5 43t93.5 13.5q24 0 48.5 -2.5t47.5 -6.5q-5 42 -28 59.5t-77 19.5v24q46 -2 87.5 -4t87.5 -2t86.5 2t86.5 4v-24q-54 -2 -77.5 -20t-28.5 -60q24 5 49 7.5
t50 2.5q46 0 93.5 -13.5t86.5 -43t64 -76t25 -112.5q0 -70 -24 -119t-60.5 -80t-79 -45t-79.5 -14q-72 0 -126 17v-8q0 -39 25 -57t86 -21v-24q-45 2 -89 3t-89 1t-89 -1t-89 -3v24zM340 113q15 0 30 2.5t29 8.5v406q-11 3 -22 5t-23 2q-86 0 -134 -55.5t-48 -152.5
q0 -106 41 -161t127 -55zM594 113q86 0 127 55t41 161q0 97 -48 152.5t-134 55.5q-23 0 -47 -8v-404q28 -12 61 -12z" />
    <glyph glyph-name="afii10039" unicode="&#x425;" horiz-adv-x="741" 
d="M-4 24q37 2 68.5 18t58.5 39.5t50 51.5t43 53l100 127l-174 229q-17 22 -32 39t-30 28t-31 17t-37 6v24q85 -6 169 -6q42 0 82 2t82 4v-24q-24 0 -43.5 -7.5t-19.5 -32.5q0 -12 16 -38t37 -55t41 -55.5t28 -39.5q9 16 27.5 40.5t37 51t33 51.5t14.5 41q0 13 -8 22
t-19 13.5t-24 6.5t-23 2v24q32 -2 63.5 -4t63.5 -2q67 0 135 6v-24q-41 0 -77.5 -24t-70.5 -61.5t-66 -82.5t-65 -87l186 -255q14 -19 30 -37t35 -32.5t40.5 -23.5t47.5 -9v-24q-46 2 -91.5 3t-93.5 1t-94 -1t-94 -3v24q15 0 30.5 2t28 8t20.5 17.5t8 29.5q0 11 -14 32.5
t-35.5 50t-46.5 61.5t-46 66q-11 -17 -34 -47.5t-46.5 -63t-41.5 -61.5t-18 -43q0 -30 28 -39.5t70 -12.5v-24q-39 2 -78 3t-78 1q-54 0 -89.5 -1t-52.5 -3v28z" />
    <glyph glyph-name="afii10040" unicode="&#x426;" horiz-adv-x="842" 
d="M811 -183q-26 97 -87.5 140t-161.5 43h-368q-44 0 -87 -0.5t-86 -3.5v24q35 2 55.5 8t31 19.5t13 36.5t2.5 58v390q0 31 -4.5 49.5t-16.5 28.5t-31.5 14t-49.5 6v24q42 -2 83.5 -3t83.5 -1q45 0 87.5 1t87.5 3v-24q-30 -2 -50.5 -5.5t-33 -13.5t-17.5 -29t-5 -50v-488
q38 -3 72.5 -5.5t81.5 -2.5q42 0 85 2.5t83 5.5v488q0 31 -5 49.5t-17.5 28.5t-32.5 14t-50 6v24q43 -2 86 -3t86 -1t86.5 1t86.5 3v-24q-31 -2 -51.5 -7.5t-32.5 -17t-17 -29t-5 -44.5v-359q0 -42 2 -67.5t12.5 -40t33 -21t62.5 -10.5q0 -26 1 -55t2.5 -57.5t4 -54.5
t4.5 -46l-24 -4v0z" />
    <glyph glyph-name="afii10041" unicode="&#x427;" horiz-adv-x="782" 
d="M394 20q30 2 53.5 6t39 14t24 28.5t8.5 49.5v175q-18 -8 -43 -17.5t-54 -17t-61.5 -12.5t-65.5 -5q-61 0 -98.5 19.5t-58.5 46.5t-28.5 57t-7.5 51v93q0 35 -2.5 57.5t-13 36t-31 20t-55.5 10.5v24q43 -3 82.5 -4.5t83.5 -1.5t81.5 1.5t80.5 4.5v-24q-36 -4 -56 -10.5
t-29.5 -20t-11.5 -36t-2 -57.5v-69q0 -26 4 -51t17.5 -44.5t39.5 -31.5t70 -12q35 0 76.5 10.5t82.5 24.5v173q0 35 -2.5 57.5t-13.5 36t-32.5 20t-59.5 10.5v24q88 -6 176 -6q86 0 172 6v-24q-37 -4 -58 -10.5t-31.5 -20t-13.5 -36t-3 -57.5v-390q0 -31 5 -49.5t17 -28.5
t32.5 -14t51.5 -6v-24q-43 2 -86.5 3t-86.5 1t-96 -1t-96 -3v24z" />
    <glyph glyph-name="afii10042" unicode="&#x428;" horiz-adv-x="1178" 
d="M21 20q35 2 55.5 8t31 19.5t13 36.5t2.5 58v390q0 31 -4.5 49.5t-16.5 28.5t-31.5 14t-49.5 6v24q42 -2 83.5 -3t83.5 -1q45 0 82.5 1t82.5 3v-24q-27 -2 -45 -5.5t-29.5 -13.5t-16.5 -29t-5 -50v-489q19 -1 33.5 -2.5t28.5 -2.5t28.5 -1.5t33.5 -0.5q21 0 38 0.5t33 1.5
t32 2.5t35 2.5v489q0 31 -5 49.5t-16.5 28.5t-29.5 14t-44 6v24q43 -2 81 -3t81 -1q45 0 81.5 1t81.5 3v-24q-27 -2 -45 -5.5t-29.5 -13.5t-16.5 -29t-5 -50v-489q19 -1 33.5 -2.5t28.5 -2.5t28.5 -1.5t33.5 -0.5q21 0 38 0.5t33 1.5t32 2.5t35 2.5v489q0 31 -5 49.5
t-16.5 28.5t-29.5 14t-44 6v24q43 -2 81 -3t81 -1t86.5 1t86.5 3v-24q-31 -2 -51.5 -7.5t-32.5 -17t-17 -29t-5 -44.5v-390q0 -35 2 -58t12.5 -36.5t32 -19.5t59.5 -8v-24q-43 3 -85.5 3.5t-86.5 0.5h-789q-44 0 -87 -0.5t-86 -3.5v24z" />
    <glyph glyph-name="afii10043" unicode="&#x429;" horiz-adv-x="1178" 
d="M1147 -183q-26 97 -87.5 140t-161.5 43h-704q-44 0 -87 -0.5t-86 -3.5v24q35 2 55.5 8t31 19.5t13 36.5t2.5 58v390q0 31 -4.5 49.5t-16.5 28.5t-31.5 14t-49.5 6v24q42 -2 83.5 -3t83.5 -1q45 0 82.5 1t82.5 3v-24q-27 -2 -45 -5.5t-29.5 -13.5t-16.5 -29t-5 -50v-489
q19 -1 33.5 -2.5t28.5 -2.5t28.5 -1.5t33.5 -0.5q21 0 38 0.5t33 1.5t32 2.5t35 2.5v489q0 31 -5 49.5t-16.5 28.5t-29.5 14t-44 6v24q43 -2 81 -3t81 -1q45 0 81.5 1t81.5 3v-24q-27 -2 -45 -5.5t-29.5 -13.5t-16.5 -29t-5 -50v-489q19 -1 33.5 -2.5t28.5 -2.5t28.5 -1.5
t33.5 -0.5q21 0 38 0.5t33 1.5t32 2.5t35 2.5v489q0 31 -5 49.5t-16.5 28.5t-29.5 14t-44 6v24q43 -2 81 -3t81 -1t86.5 1t86.5 3v-24q-31 -2 -51.5 -7.5t-32.5 -17t-17 -29t-5 -44.5v-359q0 -42 2 -67.5t12.5 -40t33 -21t62.5 -10.5q0 -26 1 -55t2.5 -57.5t4 -54.5t4.5 -46
l-24 -4v0z" />
    <glyph glyph-name="afii10044" unicode="&#x42a;" horiz-adv-x="772" 
d="M121 20q34 3 54.5 7.5t31.5 16t14.5 33t3.5 57.5v478q-37 0 -67 -6.5t-53 -24.5t-39.5 -50t-27.5 -84h-26q2 19 3.5 38.5t3 43.5t2.5 55t1 72q37 -1 69.5 -2t63.5 -2t63 -1.5t69 -0.5q43 0 91 2t90 4v-24q-34 -3 -55 -9t-33 -18.5t-16.5 -33.5t-4.5 -55v-163
q31 12 69.5 17t71.5 5q40 0 82 -12.5t76 -36.5t55.5 -59t21.5 -80q0 -60 -22 -98.5t-58 -60t-81.5 -30t-92.5 -8.5q-51 0 -102.5 5t-99.5 5t-88.5 -1t-69.5 -3v24zM454 30q70 0 104 42t34 114q0 66 -39 108t-108 42q-19 0 -44.5 -5t-41.5 -12v-271q20 -8 46 -13t49 -5z" />
    <glyph glyph-name="afii10045" unicode="&#x42b;" horiz-adv-x="1002" 
d="M19 20q34 3 54.5 7.5t31.5 16t14.5 33t3.5 57.5v382q0 34 -4 55t-15 33.5t-31 18.5t-52 9v24q44 -2 87 -4t89 -2q43 0 85 2l84 4v-24q-34 -3 -55 -9t-33 -18.5t-16.5 -33.5t-4.5 -55v-163q31 12 69.5 17t71.5 5q40 0 82 -12.5t76 -36.5t55.5 -59t21.5 -80
q0 -60 -22 -98.5t-58 -60t-81.5 -30t-92.5 -8.5q-51 0 -102.5 5t-99.5 5t-88.5 -1t-69.5 -3v24zM352 30q70 0 104 42t34 114q0 66 -39 108t-108 42q-19 0 -44.5 -5t-41.5 -12v-271q20 -8 46 -13t49 -5zM634 20q30 2 50 6t32.5 14t17.5 28.5t5 49.5v390q0 35 -2.5 57.5
t-13.5 36t-32.5 20t-59.5 10.5v24q88 -6 176 -6q86 0 172 6v-24q-37 -4 -58 -10.5t-31.5 -20t-13.5 -36t-3 -57.5v-390q0 -31 5 -49.5t17 -28.5t32.5 -14t51.5 -6v-24q-43 2 -86.5 3t-86.5 1t-86 -1t-86 -3v24z" />
    <glyph glyph-name="afii10046" unicode="&#x42c;" horiz-adv-x="670" 
d="M19 20q34 3 54.5 7.5t31.5 16t14.5 33t3.5 57.5v382q0 34 -4 55t-15 33.5t-31 18.5t-52 9v24q44 -2 87 -4t89 -2q43 0 85 2l84 4v-24q-34 -3 -55 -9t-33 -18.5t-16.5 -33.5t-4.5 -55v-163q31 12 69.5 17t71.5 5q40 0 82 -12.5t76 -36.5t55.5 -59t21.5 -80
q0 -60 -22 -98.5t-58 -60t-81.5 -30t-92.5 -8.5q-51 0 -102.5 5t-99.5 5t-88.5 -1t-69.5 -3v24zM352 30q70 0 104 42t34 114q0 66 -39 108t-108 42q-19 0 -44.5 -5t-41.5 -12v-271q20 -8 46 -13t49 -5z" />
    <glyph glyph-name="afii10047" unicode="&#x42d;" horiz-adv-x="722" 
d="M312 -20q-64 0 -116 13t-88.5 36.5t-56 56.5t-19.5 73q0 14 5.5 29t15.5 27t25 19.5t33 7.5q34 0 53 -21t19 -44q0 -19 -8.5 -36.5t-20.5 -24.5q3 -13 12 -29t27 -30.5t46 -24t69 -9.5q63 0 106 24.5t69 66t37.5 96t12.5 114.5h-276v37h275q-3 46 -16.5 94t-40 86.5
t-65 63t-90.5 24.5q-48 0 -87 -18t-68.5 -49t-49 -71t-28.5 -83l-25 6q3 27 5 59t3.5 62.5t2 56.5t0.5 43q15 0 36 4.5t65 12.5q35 7 73 12.5t66 5.5q80 0 147 -25t115 -70t75 -108.5t27 -141.5q0 -79 -29 -142.5t-79 -108.5t-116 -69.5t-141 -24.5z" />
    <glyph glyph-name="afii10048" unicode="&#x42e;" horiz-adv-x="1162" 
d="M757 -20q-74 0 -139.5 23t-114 67.5t-77 108.5t-28.5 145h-141v-206q0 -32 5 -50.5t17.5 -28.5t33 -13.5t50.5 -5.5v-24q-45 2 -87.5 3t-87.5 1q-42 0 -84.5 -1t-84.5 -3v24q30 2 50 6t32 14t17 28.5t5 49.5v390q0 35 -2.5 57.5t-13 36t-31 20t-55.5 10.5v24
q85 -6 173 -6q86 0 172 6v-24q-38 -4 -59.5 -10.5t-32.5 -20t-14 -36t-3 -57.5v-142h143q7 72 37.5 128.5t78.5 95.5t110 59.5t131 20.5q74 0 139.5 -23.5t114 -67.5t77 -108.5t28.5 -145.5t-28.5 -145.5t-77 -108.5t-114 -67.5t-139.5 -23.5zM757 16q51 0 91 24t67.5 65.5
t42 98t14.5 121.5t-14.5 121.5t-42 98t-67.5 65.5t-91 24t-91 -24t-67.5 -65.5t-42 -98t-14.5 -121.5t14.5 -121.5t42 -98t67.5 -65.5t91 -24z" />
    <glyph glyph-name="afii10049" unicode="&#x42f;" horiz-adv-x="722" 
d="M-25 19q37 1 75 29t73.5 68.5t66 86.5t53.5 82q-29 7 -55 21t-45.5 35t-30.5 50t-11 66q0 54 20.5 92t54.5 61.5t78 34.5t91 11q51 0 102.5 -3t99.5 -3t85.5 1t66.5 3v-22q-34 -3 -55 -9t-32.5 -18.5t-15.5 -33.5t-4 -55v-382q0 -34 3 -55t13.5 -33t32 -17.5t58.5 -8.5
v-24q-45 2 -90 3t-91 1q-43 0 -85.5 -1t-85.5 -3v24q39 3 61 8.5t33 17.5t14 33t3 55v165q-33 -13 -70 -17q-23 -41 -56.5 -90t-64.5 -92q-36 -50 -75 -100h-104q-29 0 -56.5 -1t-56.5 -3v23zM372 315q19 0 44.5 5t41.5 12v277q-20 8 -44 12t-47 4q-34 0 -59 -11.5t-41 -32
t-24 -49t-8 -62.5q0 -73 34 -114t103 -41z" />
    <glyph glyph-name="afii10065" unicode="&#x430;" horiz-adv-x="481" 
d="M115 -16q-21 0 -41.5 7t-36.5 19.5t-25.5 29t-9.5 36.5q0 48 26 74.5t65.5 40t85.5 16.5t86 3v74q0 68 -48 68q-17 0 -27.5 -6t-16 -15.5t-7.5 -21.5t-2 -23q0 -10 0.5 -16.5t1.5 -11.5q-37 8 -69 15t-65 12q4 32 20 52.5t39.5 32t51.5 16t55 4.5q32 0 65 -5.5t59.5 -19
t43.5 -36t17 -56.5q0 -18 -1 -40t-1.5 -43.5t-1.5 -41t-1 -32.5q0 -22 8 -40t34 -18q17 0 30.5 9t25.5 20l16 -18q-12 -11 -26.5 -25.5t-30 -27.5t-32.5 -22.5t-35 -9.5q-12 0 -24.5 5t-24 13t-22 17t-19.5 18q-37 -23 -77.5 -38t-85.5 -15zM198 44q18 0 35.5 6t31.5 19
q-1 14 -1.5 26t-0.5 25q0 14 0.5 27t1.5 27q-14 2 -26.5 3t-26.5 1q-30 0 -56 -17t-26 -51q0 -31 18 -48.5t50 -17.5z" />
    <glyph glyph-name="afii10066" unicode="&#x431;" horiz-adv-x="535" 
d="M259 -16q-52 0 -95.5 15t-75.5 46.5t-50 80t-18 116.5q0 91 11 160t35 117.5t63.5 76.5t96.5 37l75 12q28 4 54.5 10t48 14.5t36 18.5t19.5 24h27q-7 -47 -17 -77.5t-29.5 -50t-53 -31.5t-88.5 -22l-78 -14q-29 -5 -56.5 -15.5t-48.5 -34t-34 -64t-13 -106.5
q0 -11 0.5 -21.5t1.5 -22.5l4 -1q24 64 75 101t120 37q41 0 81 -13.5t72 -39.5t51.5 -64t19.5 -86t-20 -86t-52.5 -64t-74.5 -39.5t-87 -13.5zM263 22q42 0 69.5 44t27.5 131q0 40 -8 69t-22 48.5t-32.5 29t-39.5 9.5q-43 0 -70 -44.5t-27 -132.5q0 -39 8.5 -68t22.5 -48
t32.5 -28.5t38.5 -9.5z" />
    <glyph glyph-name="afii10067" unicode="&#x432;" horiz-adv-x="508" 
d="M-4 16q13 0 25.5 2.5t22 9t15.5 18t6 29.5v224q0 18 -6 29.5t-15.5 18t-22 9t-25.5 2.5v20q27 0 67 1t81 2.5t77.5 2.5t56.5 1q160 0 160 -104q0 -28 -17.5 -49t-42.5 -29v-1q18 -4 34 -14t28.5 -24t20 -31.5t7.5 -36.5q0 -29 -12 -48.5t-33 -31.5t-48 -17t-57 -5
q-9 0 -28 1t-43.5 2t-53 2t-55.5 1q-49 0 -85 -1t-57 -3v20zM245 32q41 0 66 14t25 56q0 23 -11 46t-28 37q-26 -6 -49 -6h-65v-131q13 -8 30 -12t32 -4zM239 209q36 0 56 18t20 50q0 42 -23 59t-63 17q-9 0 -22.5 -1t-23.5 -3v-140h56z" />
    <glyph glyph-name="afii10068" unicode="&#x433;" horiz-adv-x="418" 
d="M-4 16q13 0 25.5 2.5t22 9t15.5 18t6 29.5v224q0 18 -6 29.5t-15.5 18t-22 9t-25.5 2.5v20q21 -2 49.5 -3t77.5 -1h72q61 0 102 1t79 3l12 -162l-15 -2q-22 63 -60.5 95t-102.5 32h-27v-246q0 -21 5 -35t15.5 -23t28 -13.5t43.5 -7.5v-20q-20 2 -60 3t-92 1
q-49 0 -77.5 -1t-49.5 -3v20z" />
    <glyph glyph-name="afii10069" unicode="&#x434;" horiz-adv-x="506" 
d="M-20 -143q2 16 3.5 36.5t3 43t2.5 46t1 44.5q22 2 35.5 7t22.5 12.5t15 18.5t14 26q10 21 18 47t14 53t9.5 52t3.5 43q0 24 -5.5 38t-16 21.5t-24.5 9.5t-30 3v20q9 -1 23 -1.5t29.5 -1t30.5 -1t27 -0.5h191q49 0 77.5 1t49.5 3v-20q-13 0 -25.5 -2.5t-22 -9t-15.5 -18
t-6 -29.5v-161q0 -33 3.5 -53.5t12.5 -32.5t25 -17t40 -8q0 -21 1 -44.5t2.5 -46t3 -43t3.5 -36.5l-19 -3q-21 78 -70.5 112t-128.5 34h-75q-79 0 -131 -34t-73 -112zM209 33q23 0 39 2t39 4v300q-15 1 -32 2t-25 1q-30 0 -47 -16t-21 -56q-2 -21 -5.5 -44t-7 -45t-8 -41
t-7.5 -32q-4 -14 -7.5 -30t-3.5 -23q0 -11 7 -14.5t18 -4.5q9 -1 24.5 -2t36.5 -1z" />
    <glyph glyph-name="afii10070" unicode="&#x435;" horiz-adv-x="463" 
d="M222 -16q-49 0 -88.5 14.5t-67 41t-42.5 64t-15 83.5t15 83.5t42.5 64t67 41t88.5 14.5q48 0 84.5 -15.5t61.5 -43t39.5 -64.5t18.5 -79h-289q0 -63 35 -103.5t101 -40.5q35 0 68.5 15t56.5 43l24 -26q-39 -45 -91 -68.5t-109 -23.5zM264 226q20 0 27 5t7 23
q0 45 -17.5 71.5t-62.5 26.5q-23 0 -38.5 -12.5t-25 -31.5t-13.5 -41t-4 -41h127z" />
    <glyph glyph-name="afii10072" unicode="&#x436;" horiz-adv-x="805" 
d="M-20 16q30 2 56.5 18.5t40.5 36.5l105 156q-14 25 -27 42.5t-29 21.5q-8 -8 -20.5 -15.5t-32.5 -7.5q-28 0 -43 20.5t-15 42.5q0 27 19 43t46 16q35 0 58.5 -28t49.5 -74q8 -14 18.5 -28.5t24 -26.5t31 -20t39.5 -8h25v94q0 18 -7 29.5t-17.5 18t-23 9t-23.5 2.5v20
q20 -2 48.5 -3t80.5 -1t81.5 1t49.5 3v-20q-11 0 -23.5 -2.5t-23 -9t-17.5 -18t-7 -29.5v-94h25q22 0 39.5 8t31 20t24 26.5t18.5 28.5q26 46 49.5 74t58.5 28q27 0 46 -16t19 -43q0 -22 -15 -42.5t-43 -20.5q-20 0 -32.5 7.5t-20.5 15.5q-16 -4 -29 -21.5t-27 -42.5
l105 -156q14 -20 40.5 -36.5t56.5 -18.5v-20q-24 1 -56 2.5t-57 1.5h-83q-4 11 -9.5 26.5t-15.5 32.5l-32 58q-11 19 -20 30.5t-18 17t-18 7t-18 1.5h-19v-98q0 -18 7 -29.5t17.5 -18t23 -9t23.5 -2.5v-20q-20 2 -49 3t-81 1t-81 -1t-49 -3v20q11 0 23.5 2.5t23 9t17.5 18
t7 29.5v98h-19q-9 0 -18 -1.5t-18 -7t-18.5 -17t-19.5 -30.5l-32 -58q-10 -17 -15.5 -32.5t-9.5 -26.5h-83q-25 0 -57 -1.5t-56 -2.5v20z" />
    <glyph glyph-name="afii10073" unicode="&#x437;" horiz-adv-x="438" 
d="M182 -16q-49 0 -82 10t-53 26t-28.5 36.5t-8.5 41.5q0 34 21 50.5t42 16.5q15 0 26 -5.5t18 -14t10 -17.5t3 -15q0 -20 -7.5 -30.5t-15.5 -16.5q1 -7 4.5 -15.5t10.5 -15.5t19 -12t32 -5q45 0 67 22.5t22 64.5q0 27 -8.5 42.5t-22.5 23t-31.5 9.5t-35.5 2h-29v33h26
q43 0 69.5 19t26.5 59q0 27 -20 43.5t-49 16.5q-21 0 -41 -9.5t-37.5 -25t-30.5 -36.5t-21 -43l-19 2q1 12 2 29t2 35t1 35v29q15 0 33.5 3.5t40 7t46 7t50.5 3.5q34 0 64.5 -5.5t53 -17.5t35.5 -31t13 -45q0 -38 -22 -60t-52 -30q16 -5 32.5 -13t29.5 -20.5t21.5 -29.5
t8.5 -40q0 -36 -18.5 -58t-49 -34.5t-69.5 -17t-79 -4.5z" />
    <glyph glyph-name="afii10074" unicode="&#x438;" horiz-adv-x="571" 
d="M-4 16q13 0 25.5 2.5t22 9t15.5 18t6 29.5v224q0 18 -6 29.5t-15.5 18t-22 9t-25.5 2.5v20q21 -2 49.5 -3t77.5 -1h45t33.5 0.5t25.5 1.5t21 2v-20q-11 0 -22.5 -2.5t-21 -9t-15.5 -18t-6 -29.5v-174l177 187q-5 28 -24.5 37t-39.5 9v20q19 -2 46 -3t79 -1q49 0 77.5 1
t49.5 3v-20q-13 0 -25.5 -2.5t-22 -9t-15.5 -18t-6 -29.5v-224q0 -18 6 -29.5t15.5 -18t22 -9t25.5 -2.5v-20q-21 2 -49.5 3t-77.5 1q-52 0 -79 -1t-46 -3v20q11 0 22.5 2.5t21 9t15.5 18t6 29.5v182l-178 -188q1 -16 7 -26.5t15.5 -16.5t20.5 -8t22 -2v-20q-10 1 -21 2
t-25.5 1.5t-33.5 0.5h-45q-49 0 -77.5 -1t-49.5 -3v20z" />
    <glyph glyph-name="afii10075" unicode="&#x439;" horiz-adv-x="571" 
d="M-4 16q13 0 25.5 2.5t22 9t15.5 18t6 29.5v224q0 18 -6 29.5t-15.5 18t-22 9t-25.5 2.5v20q21 -2 49.5 -3t77.5 -1h45t33.5 0.5t25.5 1.5t21 2v-20q-11 0 -22.5 -2.5t-21 -9t-15.5 -18t-6 -29.5v-174l177 187q-5 28 -24.5 37t-39.5 9v20q19 -2 46 -3t79 -1q49 0 77.5 1
t49.5 3v-20q-13 0 -25.5 -2.5t-22 -9t-15.5 -18t-6 -29.5v-224q0 -18 6 -29.5t15.5 -18t22 -9t25.5 -2.5v-20q-21 2 -49.5 3t-77.5 1q-52 0 -79 -1t-46 -3v20q11 0 22.5 2.5t21 9t15.5 18t6 29.5v182l-178 -188q1 -16 7 -26.5t15.5 -16.5t20.5 -8t22 -2v-20q-10 1 -21 2
t-25.5 1.5t-33.5 0.5h-45q-49 0 -77.5 -1t-49.5 -3v20zM271 433q-32 0 -61 7.5t-50.5 22t-34 34.5t-12.5 44q0 22 13 39t41 17q27 0 41.5 -14.5t14.5 -37.5q0 -11 -6.5 -24t-17.5 -21q8 -18 24.5 -28.5t47.5 -10.5t47.5 10.5t24.5 28.5q-11 8 -17.5 21t-6.5 24
q0 23 14.5 37.5t41.5 14.5q28 0 41 -17t13 -39q0 -24 -12.5 -44t-34 -34.5t-50.5 -22t-61 -7.5z" />
    <glyph glyph-name="afii10076" unicode="&#x43a;" horiz-adv-x="544" 
d="M-4 16q13 0 25.5 2.5t22 9t15.5 18t6 29.5v224q0 18 -6 29.5t-15.5 18t-22 9t-25.5 2.5v20q21 -2 49.5 -3t77.5 -1q52 0 81.5 1t49.5 3v-20q-11 0 -23.5 -2.5t-23 -9t-17.5 -18t-7 -29.5v-91h25q22 0 39.5 7.5t31.5 19t24 25.5t18 28q27 52 51.5 77t56.5 25q33 0 49 -18
t16 -41q0 -11 -3.5 -22.5t-10.5 -21.5t-18 -16t-26 -6q-20 0 -32.5 9t-20.5 17q-16 -4 -31.5 -23.5t-29.5 -44.5l115 -152q15 -20 42 -36.5t57 -18.5v-20q-24 1 -58.5 2.5t-59.5 1.5h-73q-4 11 -12.5 27t-19.5 32l-42 58q-22 31 -38.5 42t-35.5 11h-14v-95q0 -18 7 -29.5
t17.5 -18t23 -9t23.5 -2.5v-20q-20 2 -49.5 3t-81.5 1q-49 0 -77.5 -1t-49.5 -3v20z" />
    <glyph glyph-name="afii10077" unicode="&#x43b;" horiz-adv-x="514" 
d="M55 -14q-42 0 -58.5 23.5t-16.5 51.5q0 26 17.5 44t42.5 18q21 0 36 -10.5t21 -25.5q13 7 21.5 21.5t14 32t8 35l4.5 31.5q4 29 6 52.5t2 37.5q0 30 -19.5 43.5t-58.5 17.5v20q12 -1 29 -1.5t35 -1t34.5 -1t28.5 -0.5h162q49 0 77.5 1t49.5 3v-20q-13 0 -25.5 -2.5
t-22 -9t-15.5 -18t-6 -29.5v-224q0 -18 6 -29.5t15.5 -18t22 -9t25.5 -2.5v-20q-21 2 -49.5 3t-77.5 1q-52 0 -83.5 -1t-51.5 -3v20q11 0 24 2.5t24.5 9t19 18t7.5 29.5v264q-14 1 -31.5 1.5t-27.5 0.5q-15 0 -30 -8.5t-18 -36.5l-14 -120q-5 -40 -14.5 -74.5t-25 -60
t-37.5 -40.5t-51 -15z" />
    <glyph glyph-name="afii10078" unicode="&#x43c;" horiz-adv-x="658" 
d="M-20 16q70 7 80 70q11 60 21 120.5t22 121.5q-10 15 -31.5 21.5t-38.5 8.5v20q25 -2 59.5 -3.5t58.5 -1.5q10 0 27.5 0.5t36 1t35.5 1.5t27 2v-20q-30 -2 -42 -12.5t1 -36.5l79 -158l72 154q9 19 10 28.5t-4.5 14t-17.5 6t-29 4.5v20q11 -1 28 -1.5t34.5 -1t34.5 -1
t28 -0.5q26 0 62.5 1t62.5 3v-20q-27 -2 -47 -11.5t-20 -38.5q0 -5 1.5 -16t3.5 -27l29 -171q4 -22 9 -36.5t14.5 -23.5t24 -13t37.5 -5v-20q-11 0 -29 1t-36.5 1.5t-36 1t-28.5 0.5q-29 0 -66 -1.5t-66 -2.5v20q11 2 23 3.5t22 6t16.5 13.5t6.5 24q0 4 -4.5 36t-10.5 72
t-12.5 76.5t-10.5 49.5h-1q-14 -37 -31 -74t-34.5 -74.5t-32.5 -74.5t-25 -73h-24q-9 32 -25 68.5t-36 74.5t-41.5 76.5t-39.5 76.5h-1q-3 -25 -7.5 -55t-8.5 -58.5t-7 -52t-3 -34.5q0 -40 16 -57t60 -24v-20l-47.5 2.5t-47.5 1.5q-20 0 -50 -1.5l-50 -2.5v20z" />
    <glyph glyph-name="afii10079" unicode="&#x43d;" horiz-adv-x="556" 
d="M-4 16q13 0 25.5 2.5t22 9t15.5 18t6 29.5v224q0 18 -6 29.5t-15.5 18t-22 9t-25.5 2.5v20q21 -2 49.5 -3t77.5 -1h45t33.5 0.5t25.5 1.5t21 2v-20q-11 0 -22.5 -2.5t-21 -9t-15.5 -18t-6 -29.5v-84h163v84q0 18 -6 29.5t-15.5 18t-21 9t-22.5 2.5v20q19 -2 46 -3t79 -1
q49 0 77.5 1t49.5 3v-20q-13 0 -25.5 -2.5t-22 -9t-15.5 -18t-6 -29.5v-224q0 -18 6 -29.5t15.5 -18t22 -9t25.5 -2.5v-20q-21 2 -49.5 3t-77.5 1q-52 0 -79 -1t-46 -3v20q11 0 22.5 2.5t21 9t15.5 18t6 29.5v102h-163v-102q0 -18 6 -29.5t15.5 -18t21 -9t22.5 -2.5v-20
q-10 1 -21 2t-25.5 1.5t-33.5 0.5h-45q-49 0 -77.5 -1t-49.5 -3v20z" />
    <glyph glyph-name="afii10080" unicode="&#x43e;" horiz-adv-x="519" 
d="M243 -16q-45 0 -87 13.5t-74.5 39.5t-52.5 64t-20 86t20 86t52.5 64t74.5 39.5t87 13.5t87 -13.5t74.5 -39.5t52.5 -64t20 -86t-20 -86t-52.5 -64t-74.5 -39.5t-87 -13.5zM253 22q42 0 66 37t24 109q0 47 -9 82t-24.5 57.5t-35.5 33.5t-41 11q-42 0 -66 -37t-24 -109
q0 -47 9 -82t24.5 -57.5t35.5 -33.5t41 -11z" />
    <glyph glyph-name="afii10081" unicode="&#x43f;" horiz-adv-x="556" 
d="M-4 16q13 0 25.5 2.5t22 9t15.5 18t6 29.5v224q0 18 -6 29.5t-15.5 18t-22 9t-25.5 2.5v20q21 -2 49.5 -3t77.5 -1h283q49 0 77.5 1t49.5 3v-20q-13 0 -25.5 -2.5t-22 -9t-15.5 -18t-6 -29.5v-224q0 -18 6 -29.5t15.5 -18t22 -9t25.5 -2.5v-20q-21 2 -49.5 3t-77.5 1
q-52 0 -79 -1t-46 -3v20q11 0 22.5 2.5t21 9t15.5 18t6 29.5v261q-19 2 -37.5 3.5t-41.5 1.5t-43.5 -1.5t-40.5 -3.5v-261q0 -18 6 -29.5t15.5 -18t21 -9t22.5 -2.5v-20q-10 1 -21 2t-25.5 1.5t-33.5 0.5h-45q-49 0 -77.5 -1t-49.5 -3v20z" />
    <glyph glyph-name="afii10082" unicode="&#x440;" horiz-adv-x="556" 
d="M-11 -216q22 0 35 7t19.5 18t8 24t1.5 26v445q0 50 -66 50v20q49 2 98 7t86 15v-57q39 29 72 40t67 11q44 0 81 -15.5t64 -42.5t42 -64.5t15 -80.5q0 -47 -16 -83t-44 -60.5t-65.5 -37t-80.5 -12.5t-75 4.5t-60 18.5v-114q0 -38 5 -60t18.5 -34t37 -17t60.5 -8v-20
q-45 2 -87 3t-87 1q-32 0 -64.5 -1t-64.5 -3v20zM275 32q55 0 78 38.5t23 114.5q0 78 -23 116.5t-78 38.5q-16 0 -32.5 -6t-30.5 -15.5t-25 -21t-16 -21.5v-144q0 -45 23 -72.5t81 -27.5z" />
    <glyph glyph-name="afii10083" unicode="&#x441;" horiz-adv-x="444" 
d="M236 -16q-45 0 -87 13.5t-74.5 39.5t-52.5 64t-20 86t20 86t52.5 64t74.5 39.5t87 13.5q35 0 64 -6t58 -6h25q0 -15 0.5 -37t2 -46.5t3.5 -49t5 -43.5h-19q-8 21 -20.5 47.5t-29.5 49t-40 38t-53 15.5q-49 0 -75.5 -35t-26.5 -87q0 -41 11 -75t31.5 -58.5t49.5 -38.5
t64 -14q32 0 58.5 10.5t57.5 32.5l23 -23q-45 -38 -91.5 -59t-97.5 -21z" />
    <glyph glyph-name="afii10084" unicode="&#x442;" horiz-adv-x="485" 
d="M93 16q13 0 27 2.5t25.5 9t19 18t7.5 29.5v266q-63 -1 -98.5 -30.5t-56.5 -91.5l-15 2l12 157q19 -1 37.5 -2t39 -1.5t45 -0.5h54.5h82h54.5t45 0.5t39 1.5t37.5 2l12 -157l-15 -2q-22 62 -57 91.5t-98 30.5v-266q0 -18 7.5 -29.5t19 -18t25.5 -9t27 -2.5v-20
q-20 2 -53.5 3t-85.5 1q-49 0 -82.5 -1t-54.5 -3v20z" />
    <glyph glyph-name="afii10085" unicode="&#x443;" horiz-adv-x="537" 
d="M38 -250q-18 0 -37.5 6.5t-35.5 18.5t-26.5 29.5t-10.5 39.5q0 30 18 51t50 21q25 0 42.5 -16t17.5 -41q0 -9 -2 -18t-2 -18q0 -16 13 -20.5t26 -4.5q21 0 41.5 17t38 40t31 48t21.5 41l-151 331q-15 34 -37 56t-62 27v20q38 -2 74.5 -3t74.5 -1q32 0 63 1t63 3v-20
q-21 -3 -39.5 -15.5t-18.5 -38.5q0 -19 13 -53t30 -71.5t34 -72.5t25 -56q8 20 25 56.5t34.5 75.5t31 74t13.5 52q0 27 -18 38t-42 11v20q26 -2 52.5 -3t52.5 -1q23 0 45.5 1t45.5 3v-20q-32 0 -57.5 -26.5t-51.5 -86.5q-15 -33 -41.5 -86t-57 -109.5t-60 -109.5t-50.5 -86
q-30 -48 -73 -76t-103 -28z" />
    <glyph glyph-name="afii10086" unicode="&#x444;" horiz-adv-x="727" 
d="M216 -216q28 0 50 11.5t22 47.5v165q-24 -11 -47.5 -17.5t-45.5 -6.5q-44 0 -78.5 16t-58.5 44t-36.5 66t-12.5 82t15.5 80.5t42.5 62.5t63.5 40.5t77.5 14.5q20 0 40 -6.5t40 -16.5v241q0 35 -16.5 48.5t-53.5 13.5v20q52 2 101.5 7t86.5 15v-347q23 11 46.5 18t46.5 7
q44 0 78.5 -16t58.5 -44t36.5 -66t12.5 -82t-15.5 -80.5t-42.5 -62.5t-63.5 -40.5t-77.5 -14.5q-20 0 -40 6.5t-40 16.5v-164q0 -36 22 -47.5t51 -11.5v-20l-26 2t-28 1.5t-34 0.5h-45q-49 0 -78 -1t-52 -3v20zM230 33q16 0 30.5 4.5t27.5 11.5v271q-13 8 -27.5 14.5
t-30.5 6.5q-39 0 -65.5 -34t-26.5 -113q0 -83 25 -122t67 -39zM464 33q19 0 36 8t29.5 25.5t19.5 45.5t7 68q0 83 -25 122t-67 39q-17 0 -31.5 -5t-26.5 -12v-271q13 -8 27.5 -14t30.5 -6z" />
    <glyph glyph-name="afii10087" unicode="&#x445;" horiz-adv-x="537" 
d="M-18 16q25 7 45 18t44 29t55.5 44.5t78.5 64.5q-42 51 -69.5 84t-49 53t-42 31t-48.5 18v20q35 -2 69 -3t69 -1q34 0 68 1t69 3v-20q-17 -1 -29.5 -9t-12.5 -24q0 -8 7.5 -20t17 -25t19 -24.5t13.5 -17.5q9 7 20 17t20.5 22t16.5 25t7 25t-10.5 21.5t-24.5 9.5v20
q24 -2 48.5 -3t48.5 -1t48.5 1t48.5 3v-20q-24 -6 -42 -14.5t-39 -24.5t-50 -41t-75 -64q42 -56 70.5 -90.5t52 -55t45.5 -31.5t52 -21v-20q-38 2 -74.5 3t-74.5 1t-74.5 -1t-74.5 -3v20q23 2 39 7.5t16 24.5q0 9 -6.5 21.5t-15.5 25.5t-19 26.5t-18 25.5q-9 -9 -24 -20.5
t-29.5 -24.5t-25.5 -27t-11 -27q0 -19 15 -24.5t30 -7.5v-20q-24 2 -48.5 3t-48.5 1t-48.5 -1t-48.5 -3v20z" />
    <glyph glyph-name="afii10088" unicode="&#x446;" horiz-adv-x="565" 
d="M536 -146q-21 78 -70.5 112t-128.5 34h-214q-49 0 -77.5 -1t-49.5 -3v20q13 0 25.5 2.5t22 9t15.5 18t6 29.5v224q0 18 -6 29.5t-15.5 18t-22 9t-25.5 2.5v20q21 -2 49.5 -3t77.5 -1h45t33.5 0.5t25.5 1.5t21 2v-20q-11 0 -22.5 -2.5t-21 -9t-15.5 -18t-6 -29.5v-259
q20 -2 40.5 -4.5t43.5 -2.5t41.5 2t37.5 5v259q0 18 -6 29.5t-15.5 18t-21 9t-22.5 2.5v20q19 -2 46 -3t79 -1q49 0 77.5 1t49.5 3v-20q-13 0 -25.5 -2.5t-22 -9t-15.5 -18t-6 -29.5v-161q0 -33 3.5 -53.5t12.5 -32.5t25 -17t40 -8q0 -21 1 -44.5t2.5 -46t3 -43t3.5 -36.5
l-19 -3v0z" />
    <glyph glyph-name="afii10089" unicode="&#x447;" horiz-adv-x="547" 
d="M252 16q11 0 25.5 2.5t28 9t22.5 18t9 29.5v89q-11 -4 -28.5 -9.5t-39 -10.5t-45 -8.5t-45.5 -3.5q-35 0 -58 8.5t-37 22t-19.5 31t-5.5 35.5v63q0 40 -17 52t-52 14v20q12 -1 28.5 -2t34 -1.5t34 -0.5h28.5h29t33 0.5t33.5 1.5t28.5 2v-20q-22 -1 -35 -6.5t-19.5 -14.5
t-8.5 -20.5t-2 -24.5v-36q0 -20 2 -34.5t8.5 -25t19 -15.5t33.5 -5q22 0 48 7t52 16v100q0 18 -6 29.5t-15.5 18t-21 9t-22.5 2.5v20q19 -2 46 -3t79 -1q49 0 77.5 1t49.5 3v-20q-13 0 -25.5 -2.5t-22 -9t-15.5 -18t-6 -29.5v-224q0 -18 6 -29.5t15.5 -18t22 -9t25.5 -2.5
v-20q-21 2 -49.5 3t-77.5 1q-52 0 -88.5 -1t-56.5 -3v20z" />
    <glyph glyph-name="afii10090" unicode="&#x448;" horiz-adv-x="809" 
d="M-4 16q13 0 25.5 2.5t22 9t15.5 18t6 29.5v224q0 18 -6 29.5t-15.5 18t-22 9t-25.5 2.5v20q21 -2 49.5 -3t77.5 -1h44t31 0.5t22.5 1.5t19.5 2v-20q-22 0 -39.5 -13.5t-17.5 -45.5v-259q20 -2 35.5 -4.5t38.5 -2.5t39.5 2t35.5 5v259q0 32 -17.5 45.5t-39.5 13.5v20
q10 -1 20.5 -2t23.5 -1.5t30.5 -0.5h42.5h41.5t30 0.5t22.5 1.5t21 2v-20q-22 0 -39.5 -13.5t-17.5 -45.5v-259q19 -3 34 -5t38 -2t40 2.5t37 4.5v259q0 32 -17.5 45.5t-39.5 13.5v20q10 -1 19.5 -2t22.5 -1.5t31 -0.5h44q49 0 77.5 1t49.5 3v-20q-13 0 -25.5 -2.5t-22 -9
t-15.5 -18t-6 -29.5v-224q0 -18 6 -29.5t15.5 -18t22 -9t25.5 -2.5v-20q-21 2 -59.5 3t-87.5 1h-496q-49 0 -87.5 -1t-59.5 -3v20z" />
    <glyph glyph-name="afii10091" unicode="&#x449;" horiz-adv-x="818" 
d="M789 -146q-21 78 -70.5 112t-128.5 34h-447q-49 0 -87.5 -1t-59.5 -3v20q13 0 25.5 2.5t22 9t15.5 18t6 29.5v224q0 18 -6 29.5t-15.5 18t-22 9t-25.5 2.5v20q21 -2 49.5 -3t77.5 -1h44t31 0.5t22.5 1.5t19.5 2v-20q-22 0 -39.5 -13.5t-17.5 -45.5v-259q20 -2 35.5 -4.5
t38.5 -2.5t39.5 2t35.5 5v259q0 32 -17.5 45.5t-39.5 13.5v20q10 -1 20.5 -2t23.5 -1.5t30.5 -0.5h42.5h41.5t30 0.5t22.5 1.5t21 2v-20q-22 0 -39.5 -13.5t-17.5 -45.5v-259q19 -2 34 -4.5t38 -2.5t40 2.5t37 4.5v259q0 32 -17.5 45.5t-39.5 13.5v20q10 -1 19.5 -2
t22.5 -1.5t31 -0.5h44q49 0 77.5 1t49.5 3v-20q-13 0 -25.5 -2.5t-22 -9t-15.5 -18t-6 -29.5v-161q0 -33 3.5 -53.5t12.5 -32.5t25 -17t40 -8q0 -21 1 -44.5t2.5 -46t3 -43t3.5 -36.5l-19 -3v0z" />
    <glyph glyph-name="afii10092" unicode="&#x44a;" horiz-adv-x="563" 
d="M91 16q13 0 25.5 2.5t22 9t15.5 18t6 29.5v266q-55 -1 -84.5 -30.5t-50.5 -91.5l-15 2l12 157q19 -1 34.5 -2t32.5 -1.5t38 -0.5h51h40q52 0 81 1t49 3v-20q-11 0 -23 -2.5t-22.5 -9t-17.5 -18t-7 -29.5v-77h105q73 0 113 -34t40 -86q0 -29 -13 -49t-35 -33.5
t-49.5 -19.5t-57.5 -6q-15 0 -35 1t-41 2t-40.5 2t-32.5 1q-49 0 -84.5 -1t-56.5 -3v20zM332 30q79 0 79 82q0 38 -22.5 56.5t-61.5 18.5h-49v-146q11 -5 25.5 -8t28.5 -3z" />
    <glyph glyph-name="afii10093" unicode="&#x44b;" horiz-adv-x="716" 
d="M-4 16q13 0 25.5 2.5t22 9t15.5 18t6 29.5v224q0 18 -6 29.5t-15.5 18t-22 9t-25.5 2.5v20q21 -2 49.5 -3t77.5 -1q52 0 81 1t49 3v-20q-11 0 -23 -2.5t-22.5 -9t-17.5 -18t-7 -29.5v-77h105q73 0 113 -34t40 -86q0 -29 -13 -49t-35 -33.5t-49.5 -19.5t-57.5 -6
q-15 0 -35 1t-41 2t-40.5 2t-32.5 1q-49 0 -84.5 -1t-56.5 -3v20zM237 30q79 0 79 82q0 38 -22.5 56.5t-61.5 18.5h-49v-146q11 -5 25.5 -8t28.5 -3zM441 16q11 0 22.5 2.5t21 9t15.5 18t6 29.5v224q0 18 -6 29.5t-15.5 18t-21 9t-22.5 2.5v20q19 -2 46 -3t79 -1
q49 0 77.5 1t49.5 3v-20q-13 0 -25.5 -2.5t-22 -9t-15.5 -18t-6 -29.5v-224q0 -18 6 -29.5t15.5 -18t22 -9t25.5 -2.5v-20q-21 2 -49.5 3t-77.5 1q-52 0 -79 -1t-46 -3v20z" />
    <glyph glyph-name="afii10094" unicode="&#x44c;" horiz-adv-x="468" 
d="M-4 16q13 0 25.5 2.5t22 9t15.5 18t6 29.5v224q0 18 -6 29.5t-15.5 18t-22 9t-25.5 2.5v20q21 -2 49.5 -3t77.5 -1q52 0 81 1t49 3v-20q-11 0 -23 -2.5t-22.5 -9t-17.5 -18t-7 -29.5v-77h105q73 0 113 -34t40 -86q0 -29 -13 -49t-35 -33.5t-49.5 -19.5t-57.5 -6
q-15 0 -35 1t-41 2t-40.5 2t-32.5 1q-49 0 -84.5 -1t-56.5 -3v20zM237 30q79 0 79 82q0 38 -22.5 56.5t-61.5 18.5h-49v-146q11 -5 25.5 -8t28.5 -3z" />
    <glyph glyph-name="afii10095" unicode="&#x44d;" horiz-adv-x="458" 
d="M186 -16q-49 0 -83.5 10t-56.5 26t-32 36.5t-10 41.5q0 34 21 50.5t42 16.5q15 0 26 -5.5t18 -14t10 -17.5t3 -15q0 -20 -7.5 -30.5t-15.5 -16.5q1 -7 6.5 -15.5t15.5 -15.5t24.5 -12t34.5 -5q54 0 79 42.5t27 120.5h-150v33h149q-4 65 -30 101.5t-71 36.5
q-30 0 -52.5 -11t-39 -28.5t-28.5 -39.5t-20 -43h-19q6 39 8 74t2 65q14 0 31.5 3.5t37 7l39 7t37.5 3.5q45 0 87 -14.5t74.5 -41.5t52.5 -66t20 -87t-21 -85t-54 -62t-74 -37.5t-81 -12.5z" />
    <glyph glyph-name="afii10096" unicode="&#x44e;" horiz-adv-x="739" 
d="M478 -16q-40 0 -78.5 13t-69 37.5t-50 60.5t-21.5 82h-76v-102q0 -18 6 -29.5t15.5 -18t21 -9t22.5 -2.5v-20q-10 1 -21 2t-25.5 1.5t-33.5 0.5h-45q-49 0 -77.5 -1t-49.5 -3v20q13 0 25.5 2.5t22 9t15.5 18t6 29.5v224q0 18 -6 29.5t-15.5 18t-22 9t-25.5 2.5v20
q21 -2 49.5 -3t77.5 -1h45t33.5 0.5t25.5 1.5t21 2v-20q-11 0 -22.5 -2.5t-21 -9t-15.5 -18t-6 -29.5v-84h78q5 42 25.5 74.5t50.5 55t66.5 34t74.5 11.5q41 0 80.5 -13.5t70 -39.5t49.5 -64t19 -86t-19 -86t-49.5 -64t-70 -39.5t-80.5 -13.5zM488 22q42 0 61 37t19 109
q0 95 -28.5 139.5t-71.5 44.5q-42 0 -61 -37t-19 -109q0 -95 28.5 -139.5t71.5 -44.5z" />
    <glyph glyph-name="afii10097" unicode="&#x44f;" horiz-adv-x="510" 
d="M-28 16q24 0 45 10.5t40 29t36.5 43t35.5 52.5q-40 9 -67.5 35t-27.5 71q0 68 47.5 97.5t132.5 27.5q33 0 73 -1t78 -1.5t69.5 -1t47.5 -0.5v-20q-13 0 -25.5 -2.5t-22 -9t-15.5 -18t-6 -29.5v-224q0 -18 6 -29.5t15.5 -18t22 -9t25.5 -2.5v-20q-21 2 -49.5 3t-77.5 1
q-52 0 -83.5 -1t-51.5 -3v20q11 0 24 2.5t24.5 9t19 18t7.5 29.5v72h-47q-14 -23 -31.5 -49t-33.5 -48q-18 -26 -37 -50h-79q-8 0 -21 -0.5t-26.5 -1t-26.5 -1.5t-21 -1v20zM295 182v161q-11 4 -27 6t-30 2q-35 0 -55 -23t-20 -56q0 -42 19.5 -66t58.5 -24h54z" />
    <glyph glyph-name="uni0450" unicode="&#x450;" horiz-adv-x="463" 
d="M222 -16q-49 0 -88.5 14.5t-67 41t-42.5 64t-15 83.5t15 83.5t42.5 64t67 41t88.5 14.5q48 0 84.5 -15.5t61.5 -43t39.5 -64.5t18.5 -79h-289q0 -63 35 -103.5t101 -40.5q35 0 68.5 15t56.5 43l24 -26q-39 -45 -91 -68.5t-109 -23.5zM264 226q20 0 27 5t7 23
q0 45 -17.5 71.5t-62.5 26.5q-23 0 -38.5 -12.5t-25 -31.5t-13.5 -41t-4 -41h127zM260 444l-150 100q-14 9 -19 20t-5 25q0 15 13.5 28t33.5 13q17 0 33.5 -12t36.5 -35l115 -139h-58z" />
    <glyph glyph-name="afii10071" unicode="&#x451;" horiz-adv-x="463" 
d="M222 -16q-49 0 -88.5 14.5t-67 41t-42.5 64t-15 83.5t15 83.5t42.5 64t67 41t88.5 14.5q48 0 84.5 -15.5t61.5 -43t39.5 -64.5t18.5 -79h-289q0 -63 35 -103.5t101 -40.5q35 0 68.5 15t56.5 43l24 -26q-39 -45 -91 -68.5t-109 -23.5zM264 226q20 0 27 5t7 23
q0 45 -17.5 71.5t-62.5 26.5q-23 0 -38.5 -12.5t-25 -31.5t-13.5 -41t-4 -41h127zM330 582q27 0 45.5 -18.5t18.5 -45.5t-18.5 -45.5t-45.5 -18.5t-45.5 18.5t-18.5 45.5t18.5 45.5t45.5 18.5zM133 582q27 0 45.5 -18.5t18.5 -45.5t-18.5 -45.5t-45.5 -18.5t-45.5 18.5
t-18.5 45.5t18.5 45.5t45.5 18.5z" />
    <glyph glyph-name="afii10099" unicode="&#x452;" horiz-adv-x="556" 
d="M274 -232q-63 0 -99.5 26t-36.5 69q0 34 21 50.5t42 16.5q15 0 26 -5.5t18 -14t10 -17.5t3 -15q0 -20 -7.5 -30.5t-15.5 -16.5q3 -14 14.5 -23.5t34.5 -9.5q35 0 48 37.5t13 100.5v325q0 34 -23.5 49.5t-55.5 15.5q-24 0 -45.5 -11t-38.5 -28v-212q0 -18 6 -29.5
t15.5 -18t21 -9t22.5 -2.5v-20q-10 1 -21 2t-25.5 1.5t-33.5 0.5h-45q-49 0 -78 -1t-52 -3v20q28 0 50 11.5t22 47.5v396h-65v30h65v119q0 50 -66 50v20q49 2 98 7t86 15v-211h163v-30h-163v-145q35 30 69.5 47t79.5 17q61 0 96.5 -34.5t35.5 -92.5v-267q0 -43 -12.5 -84
t-36.5 -73t-59.5 -51.5t-80.5 -19.5z" />
    <glyph glyph-name="afii10100" unicode="&#x453;" horiz-adv-x="418" 
d="M-4 16q13 0 25.5 2.5t22 9t15.5 18t6 29.5v224q0 18 -6 29.5t-15.5 18t-22 9t-25.5 2.5v20q21 -2 49.5 -3t77.5 -1h72q61 0 102 1t79 3l12 -162l-15 -2q-22 63 -60.5 95t-102.5 32h-27v-246q0 -21 5 -35t15.5 -23t28 -13.5t43.5 -7.5v-20q-20 2 -60 3t-92 1
q-49 0 -77.5 -1t-49.5 -3v20zM103 444l115 139q20 23 36.5 35t33.5 12q20 0 33.5 -13t13.5 -28q0 -14 -5 -25t-19 -20l-150 -100h-58z" />
    <glyph glyph-name="afii10101" unicode="&#x454;" horiz-adv-x="444" 
d="M233 -16q-45 0 -85.5 13.5t-71 39.5t-49 64t-18.5 86t20 86t52.5 64t74.5 39.5t87 13.5q35 0 64 -6t58 -6h25q0 -15 0.5 -34l1 -38t2 -37.5t3.5 -31.5h-19q-8 21 -19.5 42t-28 37t-39 26t-52.5 10q-24 0 -43 -10.5t-32 -29t-20 -44t-7 -54.5h171v-33h-170
q6 -69 37 -108.5t82 -39.5q50 0 83 16t64 38l18 -25q-45 -38 -91.5 -58t-97.5 -20z" />
    <glyph glyph-name="afii10102" unicode="&#x455;" horiz-adv-x="407" 
d="M208 -16q-46 0 -91 8.5t-87 25.5l-9 122h23q27 -52 71.5 -88t105.5 -36q22 0 39 10t17 33q0 21 -18.5 35t-46 25.5t-60 23t-60 28t-46 40.5t-18.5 60q0 34 12 56.5t31.5 36.5t44 20t50.5 6q16 0 34.5 -3t37.5 -6t38.5 -6t37.5 -3q4 0 14 2l8 -124h-24q-9 18 -23.5 37
t-33 34.5t-39.5 26t-42 10.5t-38.5 -8.5t-17.5 -34.5q0 -21 18 -35t45 -25.5t58.5 -23t58.5 -28t45 -40t18 -58.5q0 -34 -13 -57t-34.5 -37.5t-49 -20.5t-56.5 -6z" />
    <glyph glyph-name="afii10103" unicode="&#x456;" horiz-adv-x="296" 
d="M5 16q28 0 50 11.5t22 47.5v229q0 26 -17 38t-55 12v20q54 2 104 7t89 15q-1 -25 -2 -49t-1 -47v-225q0 -36 22 -47.5t51 -11.5v-20l-26 2t-28 1.5t-34 0.5h-45q-49 0 -78 -1t-52 -3v20zM130 516q-32 0 -54.5 22t-22.5 55t22.5 55t54.5 22t54.5 -22t22.5 -55t-22.5 -55
t-54.5 -22z" />
    <glyph glyph-name="afii10104" unicode="&#x457;" horiz-adv-x="296" 
d="M227 582q27 0 45.5 -18.5t18.5 -45.5t-18.5 -45.5t-45.5 -18.5t-45.5 18.5t-18.5 45.5t18.5 45.5t45.5 18.5zM30 582q27 0 45.5 -18.5t18.5 -45.5t-18.5 -45.5t-45.5 -18.5t-45.5 18.5t-18.5 45.5t18.5 45.5t45.5 18.5zM268 -4q-13 1 -26 1.5t-28 1t-34 1t-45 0.5
q-49 0 -78 -1t-52 -3v20q28 0 50 11.5t22 47.5v229q0 26 -17 38t-55 12v20q54 2 104 7t89 15q-1 -25 -2 -49t-1 -47v-225q0 -36 22 -47.5t51 -11.5v-20z" />
    <glyph glyph-name="afii10105" unicode="&#x458;" horiz-adv-x="278" 
d="M-64 -225q40 33 65.5 67t40 68.5t20 68.5t5.5 67v238q0 42 -16 56t-50 14v20q49 2 98 7t86 15v-364q0 -42 -15.5 -77.5t-46 -68.5t-75.5 -66t-105 -70zM120 516q-32 0 -54.5 22t-22.5 55t22.5 55t54.5 22t54.5 -22t22.5 -55t-22.5 -55t-54.5 -22z" />
    <glyph glyph-name="afii10106" unicode="&#x459;" horiz-adv-x="707" 
d="M55 -14q-42 0 -58.5 23.5t-16.5 51.5q0 26 17.5 44t42.5 18q21 0 36 -10.5t21 -25.5q13 7 21.5 21.5t14 32t8 35l4.5 31.5q4 29 6 52.5t2 37.5q0 30 -19.5 43.5t-58.5 17.5v20q12 -1 29 -1.5t35 -1t34.5 -1t28.5 -0.5h160q52 0 81 1t49 3v-20q-11 0 -23 -2.5t-22.5 -9
t-17.5 -18t-7 -29.5v-77h105q73 0 113 -34t40 -86q0 -29 -13 -49t-35 -33.5t-49.5 -19.5t-57.5 -6q-15 0 -35.5 1t-43 2t-44 2t-38.5 1q-52 0 -83.5 -1t-51.5 -3v20q11 0 24 2.5t24.5 9t19 18t7.5 29.5v264q-14 1 -31.5 1.5t-27.5 0.5q-15 0 -30 -8.5t-18 -36.5l-14 -120
q-5 -40 -14.5 -74.5t-25 -60t-37.5 -40.5t-51 -15zM476 30q79 0 79 82q0 38 -22.5 56.5t-61.5 18.5h-49v-146q11 -5 25.5 -8t28.5 -3z" />
    <glyph glyph-name="afii10107" unicode="&#x45a;" horiz-adv-x="749" 
d="M-4 16q13 0 25.5 2.5t22 9t15.5 18t6 29.5v224q0 18 -6 29.5t-15.5 18t-22 9t-25.5 2.5v20q21 -2 49.5 -3t77.5 -1h45t33.5 0.5t25.5 1.5t21 2v-20q-11 0 -22.5 -2.5t-21 -9t-15.5 -18t-6 -29.5v-80h163v80q0 18 -6 29.5t-15.5 18t-21 9t-22.5 2.5v20q10 -1 20.5 -2
t25 -1.5t33 -0.5h44.5q52 0 81 1t49 3v-20q-11 0 -23 -2.5t-22.5 -9t-17.5 -18t-7 -29.5v-80h105q73 0 113 -32.5t40 -84.5q0 -29 -13 -49t-35 -33.5t-49.5 -19.5t-57.5 -6q-15 0 -35.5 1t-43 2t-44.5 2t-38 1q-52 0 -79 -1t-46 -3v20q11 0 22.5 2.5t21 9t15.5 18t6 29.5
v109h-163v-109q0 -18 6 -29.5t15.5 -18t21 -9t22.5 -2.5v-20q-10 1 -21 2t-25.5 1.5t-33.5 0.5h-45q-49 0 -77.5 -1t-49.5 -3v20zM518 30q79 0 79 82q0 38 -22.5 55t-61.5 17h-49v-143q11 -5 25.5 -8t28.5 -3z" />
    <glyph glyph-name="afii10108" unicode="&#x45b;" horiz-adv-x="556" 
d="M-8 16q28 0 50 11.5t22 47.5v396h-65v30h65v119q0 50 -66 50v20q49 2 98 7t86 15v-211h163v-30h-163v-145q35 30 69.5 47t79.5 17q61 0 96.5 -34.5t35.5 -92.5v-188q0 -18 6 -29.5t15.5 -18t21 -9t22.5 -2.5v-20q-10 1 -21 2t-25.5 1.5t-33.5 0.5h-45q-49 0 -77 -1
t-45 -3v20q11 0 22.5 2.5t20.5 9t15 18t6 29.5v186q0 34 -23.5 49.5t-55.5 15.5q-24 0 -45.5 -11t-38.5 -28v-212q0 -18 6 -29.5t15.5 -18t21 -9t22.5 -2.5v-20q-10 1 -21 2t-25.5 1.5t-33.5 0.5h-45q-49 0 -78 -1t-52 -3v20z" />
    <glyph glyph-name="afii10109" unicode="&#x45c;" horiz-adv-x="544" 
d="M-4 16q13 0 25.5 2.5t22 9t15.5 18t6 29.5v224q0 18 -6 29.5t-15.5 18t-22 9t-25.5 2.5v20q21 -2 49.5 -3t77.5 -1q52 0 81.5 1t49.5 3v-20q-11 0 -23.5 -2.5t-23 -9t-17.5 -18t-7 -29.5v-91h25q22 0 39.5 7.5t31.5 19t24 25.5t18 28q27 52 51.5 77t56.5 25q33 0 49 -18
t16 -41q0 -11 -3.5 -22.5t-10.5 -21.5t-18 -16t-26 -6q-20 0 -32.5 9t-20.5 17q-16 -4 -31.5 -23.5t-29.5 -44.5l115 -152q15 -20 42 -36.5t57 -18.5v-20q-24 1 -58.5 2.5t-59.5 1.5h-73q-4 11 -12.5 27t-19.5 32l-42 58q-22 31 -38.5 42t-35.5 11h-14v-95q0 -18 7 -29.5
t17.5 -18t23 -9t23.5 -2.5v-20q-20 2 -49.5 3t-81.5 1q-49 0 -77.5 -1t-49.5 -3v20zM166 444l115 139q20 23 36.5 35t33.5 12q20 0 33.5 -13t13.5 -28q0 -14 -5 -25t-19 -20l-150 -100h-58z" />
    <glyph glyph-name="uni045D" unicode="&#x45d;" horiz-adv-x="571" 
d="M-4 16q13 0 25.5 2.5t22 9t15.5 18t6 29.5v224q0 18 -6 29.5t-15.5 18t-22 9t-25.5 2.5v20q21 -2 49.5 -3t77.5 -1h45t33.5 0.5t25.5 1.5t21 2v-20q-11 0 -22.5 -2.5t-21 -9t-15.5 -18t-6 -29.5v-174l177 187q-5 28 -24.5 37t-39.5 9v20q19 -2 46 -3t79 -1q49 0 77.5 1
t49.5 3v-20q-13 0 -25.5 -2.5t-22 -9t-15.5 -18t-6 -29.5v-224q0 -18 6 -29.5t15.5 -18t22 -9t25.5 -2.5v-20q-21 2 -49.5 3t-77.5 1q-52 0 -79 -1t-46 -3v20q11 0 22.5 2.5t21 9t15.5 18t6 29.5v182l-178 -188q1 -16 7 -26.5t15.5 -16.5t20.5 -8t22 -2v-20q-10 1 -21 2
t-25.5 1.5t-33.5 0.5h-45q-49 0 -77.5 -1t-49.5 -3v20zM303 444l-150 100q-14 9 -19 20t-5 25q0 15 13.5 28t33.5 13q17 0 33.5 -12t36.5 -35l115 -139h-58z" />
    <glyph glyph-name="afii10110" unicode="&#x45e;" horiz-adv-x="537" 
d="M38 -250q-18 0 -37.5 6.5t-35.5 18.5t-26.5 29.5t-10.5 39.5q0 30 18 51t50 21q25 0 42.5 -16t17.5 -41q0 -9 -2 -18t-2 -18q0 -16 13 -20.5t26 -4.5q21 0 41.5 17t38 40t31 48t21.5 41l-151 331q-15 34 -37 56t-62 27v20q38 -2 74.5 -3t74.5 -1q32 0 63 1t63 3v-20
q-21 -3 -39.5 -15.5t-18.5 -38.5q0 -19 13 -53t30 -71.5t34 -72.5t25 -56q8 20 25 56.5t34.5 75.5t31 74t13.5 52q0 27 -18 38t-42 11v20q26 -2 52.5 -3t52.5 -1q23 0 45.5 1t45.5 3v-20q-32 0 -57.5 -26.5t-51.5 -86.5q-15 -33 -41.5 -86t-57 -109.5t-60 -109.5t-50.5 -86
q-30 -48 -73 -76t-103 -28zM283 433q-32 0 -61 7.5t-50.5 22t-34 34.5t-12.5 44q0 22 13 39t41 17q27 0 41.5 -14.5t14.5 -37.5q0 -11 -6.5 -24t-17.5 -21q8 -18 24.5 -28.5t47.5 -10.5t47.5 10.5t24.5 28.5q-11 8 -17.5 21t-6.5 24q0 23 14.5 37.5t41.5 14.5q28 0 41 -17
t13 -39q0 -24 -12.5 -44t-34 -34.5t-50.5 -22t-61 -7.5z" />
    <glyph glyph-name="afii10193" unicode="&#x45f;" horiz-adv-x="556" 
d="M255 -140q-8 39 -15.5 65.5t-19.5 43t-29.5 24t-44.5 7.5h-23q-49 0 -77.5 -1t-49.5 -3v20q13 0 25.5 2.5t22 9t15.5 18t6 29.5v224q0 18 -6 29.5t-15.5 18t-22 9t-25.5 2.5v20q21 -2 49.5 -3t77.5 -1h45t33.5 0.5t25.5 1.5t21 2v-20q-11 0 -22.5 -2.5t-21 -9t-15.5 -18
t-6 -29.5v-259q20 -2 40.5 -4.5t43.5 -2.5t41.5 2t37.5 5v259q0 18 -6 29.5t-15.5 18t-21 9t-22.5 2.5v20q19 -2 46 -3t79 -1q49 0 77.5 1t49.5 3v-20q-13 0 -25.5 -2.5t-22 -9t-15.5 -18t-6 -29.5v-224q0 -18 6 -29.5t15.5 -18t22 -9t25.5 -2.5v-20q-21 2 -49.5 3t-77.5 1
h-20q-27 0 -44.5 -7.5t-29.5 -24t-20 -43t-15 -65.5h-22v0z" />
    <glyph glyph-name="afii10146" unicode="&#x462;" horiz-adv-x="756" 
d="M105 20q34 3 54.5 7.5t31.5 16t14.5 33t3.5 57.5v382q-42 0 -72.5 -5t-52 -19t-36 -38.5t-23.5 -63.5h-25q1 16 2.5 31.5t2 34t1 43.5t0.5 60q54 -2 102 -3.5t99 -2.5q-2 22 -7.5 36t-17 22.5t-30 13t-45.5 7.5v24q44 -2 87 -4t89 -2q43 0 85 2l84 4v-24
q-29 -3 -48.5 -7.5t-32 -13t-19 -22.5t-8.5 -36q118 1 238 6q0 -35 0.5 -60t1 -43.5t1.5 -34t3 -31.5h-25q-9 40 -24 65t-37.5 38.5t-54 18t-74.5 4.5h-30v-183q31 12 69.5 17t71.5 5q40 0 82 -11t76 -33.5t55.5 -55.5t21.5 -78q0 -60 -22 -96.5t-58 -57t-81.5 -27
t-92.5 -6.5q-51 0 -102.5 5t-99.5 5t-88.5 -1t-69.5 -3v24zM438 30q70 0 104 37t34 109q0 66 -39 103t-108 37q-19 0 -44.5 -5t-41.5 -12v-251q20 -8 46 -13t49 -5z" />
    <glyph glyph-name="afii10194" unicode="&#x463;" horiz-adv-x="564" 
d="M92 16q13 0 25.5 2.5t22 9t15.5 18t6 29.5v266q-30 -1 -52.5 -6.5t-40 -17.5t-30.5 -31.5t-23 -49.5l-15 2l10 140q34 -2 68 -3t83 -1v30q0 18 -6 29.5t-15.5 18t-22 9t-25.5 2.5v20q21 -2 49.5 -3t77.5 -1q52 0 81 1t49 3v-20q-11 0 -23 -2.5t-22.5 -9t-17.5 -18
t-7 -29.5v-30q55 0 91.5 1t73.5 3l6 -140l-15 -2q-11 31 -24 51t-30.5 32t-40.5 17t-54 5h-7v-119h105q73 0 113 -34t40 -86q0 -29 -13 -49t-35 -33.5t-49.5 -19.5t-57.5 -6q-15 0 -35 1t-41 2t-40.5 2t-32.5 1q-49 0 -84.5 -1t-56.5 -3v20zM333 30q79 0 79 82
q0 38 -22.5 56.5t-61.5 18.5h-49v-146q11 -5 25.5 -8t28.5 -3z" />
    <glyph glyph-name="uni046A" unicode="&#x46a;" horiz-adv-x="1136" 
d="M20 20q35 2 55.5 8t31 19.5t13 36.5t2.5 58v43q0 21 8.5 50t31 55.5t61.5 45t100 18.5h155l-157 204q-26 34 -54 54t-74 20v24q45 -2 82.5 -4t82.5 -2h419q32 0 68.5 2t68.5 4v-24q-30 -1 -52 -10t-41.5 -26.5t-38 -43.5t-41.5 -60l-92 -138h164q61 0 100 -18.5t61.5 -45
t31 -55.5t8.5 -50v-43q0 -35 2.5 -58t13 -36.5t31 -19.5t55.5 -8v-24q-43 3 -86.5 3.5t-87.5 0.5h-40.5t-36 -0.5t-36 -1.5t-39.5 -2v24q30 2 47.5 8t27 19.5t12 36.5t2.5 58v35q0 26 -4 51t-17.5 44.5t-39.5 31.5t-70 12h-113v-205q0 -27 5.5 -44.5t16.5 -27.5t29 -14
t44 -5v-24q-43 2 -79.5 3t-78.5 1q-45 0 -83 -1t-83 -3v24q25 1 43.5 5t29.5 14t16.5 27.5t5.5 44.5v205h-113q-44 0 -70 -12t-39.5 -31.5t-17.5 -44.5t-4 -51v-35q0 -37 2.5 -59t12 -35t27 -18.5t47.5 -9.5v-24q-21 1 -39.5 2t-36 1.5t-36 0.5h-40.5q-44 0 -87.5 -0.5
t-86.5 -3.5v24zM617 359q7 11 19 30.5t26 43.5t29 50t26.5 50t19 43.5t7.5 30.5q-12 1 -31 2.5t-39 2.5t-39.5 1.5t-34.5 0.5q-16 0 -37.5 -0.5t-43.5 -1.5t-42 -2.5t-33 -2.5q0 -10 17 -34t42.5 -57.5t56 -74t57.5 -82.5z" />
    <glyph glyph-name="uni046B" unicode="&#x46b;" horiz-adv-x="800" 
d="M-9 16q18 1 31 4t21.5 10t12.5 19.5t4 32.5v29q0 18 5.5 35.5t19.5 31t37 22t58 8.5h131q-31 37 -53 63t-41 43t-38 27.5t-44 16.5v20q35 -2 69 -3t69 -1h278q24 0 48.5 1t48.5 3v-20q-20 -5 -40 -18t-42 -32.5t-48 -45t-58 -54.5h133q35 0 58 -8.5t37 -22t19.5 -31
t5.5 -35.5v-29q0 -20 4 -32.5t12.5 -19.5t21.5 -10t31 -4v-20q-12 1 -28.5 2t-34 1.5t-34 0.5h-28.5q-26 0 -58.5 -1t-57.5 -3v20q36 2 46.5 21t10.5 45v11q0 19 -2 34t-8.5 25.5t-19 15.5t-33.5 5h-90v-98q0 -59 58 -59v-20q-13 1 -23.5 2t-23 1.5t-29 0.5h-42.5h-41
t-29.5 -0.5t-22.5 -1.5t-22 -2v20q57 0 57 59v98h-89q-21 0 -33.5 -5t-19 -15.5t-8.5 -25.5t-2 -34v-11q0 -26 10.5 -45t46.5 -21v-20q-25 2 -57.5 3t-58.5 1h-28.5t-34 -0.5t-34 -1.5t-28.5 -2v20zM430 218q9 7 21.5 22.5t24 34t20 36.5t8.5 30h-163q0 -8 12.5 -25.5
t28 -37.5t30 -37t18.5 -23z" />
    <glyph glyph-name="afii10147" unicode="&#x472;" horiz-adv-x="852" 
d="M422 -20q-85 0 -155.5 23.5t-121.5 67.5t-79 108.5t-28 145.5t28 145.5t79 108.5t121.5 67.5t155.5 23.5t155.5 -23.5t121.5 -67.5t79 -108.5t28 -145.5t-28 -145.5t-79 -108.5t-121.5 -67.5t-155.5 -23.5zM422 16q62 0 107.5 25t75 68t43.5 98.5t14 117.5v2
q-11 -11 -25.5 -24.5t-31.5 -25t-35.5 -19.5t-36.5 -8q-33 0 -69 13.5t-70.5 30t-66 30.5t-56.5 14q-17 0 -43 -8t-46 -19q1 -59 16 -112.5t44.5 -94t74 -64.5t105.5 -24zM579 333q13 0 36 7t45 24q-4 55 -20.5 104t-45.5 86t-72 58.5t-100 21.5q-59 0 -102.5 -22.5
t-73 -61.5t-45.5 -90.5t-19 -108.5q13 12 28.5 24t32 22.5t33 17t31.5 6.5q33 0 69.5 -14t72 -30.5t69 -30t61.5 -13.5z" />
    <glyph glyph-name="afii10195" unicode="&#x473;" horiz-adv-x="519" 
d="M243 -16q-45 0 -87 13.5t-74.5 39.5t-52.5 64t-20 86t20 86t52.5 64t74.5 39.5t87 13.5t87 -13.5t74.5 -39.5t52.5 -64t20 -86t-20 -86t-52.5 -64t-74.5 -39.5t-87 -13.5zM253 22q42 0 66 37t24 109v2q-11 -14 -23.5 -23t-26.5 -9q-19 0 -35 7.5t-30.5 17t-27.5 17
t-25 7.5q-8 0 -16 -2.5t-15 -6.5q3 -40 12.5 -69.5t24.5 -48.5t33.5 -28.5t38.5 -9.5zM313 198q5 0 12.5 1.5t15.5 5.5q-7 75 -38.5 111t-69.5 36q-42 0 -65 -35t-25 -104q13 17 26.5 26t24.5 9q16 0 32 -8t30.5 -17t28.5 -17t28 -8z" />
    <glyph glyph-name="afii10148" unicode="&#x474;" horiz-adv-x="714" 
d="M326 -8q-29 64 -59 134t-60.5 143.5t-62.5 148t-65 146.5q-14 31 -37 46.5t-62 21.5v24q82 -6 166 -6q43 0 86.5 2t86.5 4v-24q-17 -2 -32.5 -5t-28 -9.5t-20 -18t-7.5 -30.5q0 -15 15.5 -55.5t40.5 -98.5t55.5 -129.5t60.5 -148.5q45 112 78 201t54 149q11 32 25 64.5
t31.5 58.5t40 42.5t51.5 16.5q45 0 63.5 -21.5t18.5 -47.5t-17 -49t-50 -23q-24 0 -36.5 9t-22.5 19q-15 -5 -31.5 -27t-30.5 -53q-62 -131 -108 -250t-88 -234h-55v0z" />
    <glyph glyph-name="afii10196" unicode="&#x475;" horiz-adv-x="500" 
d="M197 -14q-48 117 -80 188.5t-56 111.5t-44 54.5t-44 17.5v20q32 -2 64.5 -3t64.5 -1q35 0 70.5 1t70.5 3v-20q-23 -2 -40.5 -11.5t-17.5 -30.5q0 -14 12 -45.5t27 -67t29.5 -68.5t19.5 -49q6 14 15.5 39.5t20 54.5t22 58t20.5 50q24 54 45.5 78t53.5 24q33 0 49 -18
t16 -41q0 -22 -14 -42.5t-44 -20.5q-14 0 -26.5 6.5t-19.5 12.5q-12 -7 -23.5 -19.5t-27.5 -40.5q-23 -40 -46 -98.5t-55 -142.5h-62v0z" />
    <glyph glyph-name="uni048C" unicode="&#x48c;" horiz-adv-x="670" 
d="M19 20q34 3 54.5 7.5t31.5 16t14.5 33t3.5 57.5v480h-104v42h104v104h134v-104h131v-42h-131v-261q31 12 69.5 17t71.5 5q40 0 82 -12.5t76 -36.5t55.5 -59t21.5 -80q0 -60 -22 -98.5t-58 -60t-81.5 -30t-92.5 -8.5q-51 0 -102.5 5t-99.5 5t-88.5 -1t-69.5 -3v24zM352 30
q70 0 104 42t34 114q0 66 -39 108t-108 42q-19 0 -44.5 -5t-41.5 -12v-271q20 -8 46 -13t49 -5z" />
    <glyph glyph-name="uni048D" unicode="&#x48d;" horiz-adv-x="468" 
d="M-4 16q13 0 25.5 2.5t22 9t15.5 18t6 29.5v273h-69v30h69v93h118v-93h84v-30h-84v-126h105q73 0 113 -34t40 -86q0 -29 -13 -49t-35 -33.5t-49.5 -19.5t-57.5 -6q-15 0 -35 1t-41 2t-40.5 2t-32.5 1q-49 0 -84.5 -1t-56.5 -3v20zM237 30q79 0 79 82q0 38 -22.5 56.5
t-61.5 18.5h-49v-146q11 -5 25.5 -8t28.5 -3z" />
    <glyph glyph-name="afii10050" unicode="&#x490;" horiz-adv-x="617" 
d="M28 20q33 0 53.5 5t31.5 16t15 28t4 41v404q0 28 -3.5 49t-14.5 35t-31.5 21.5t-54.5 8.5v28q25 -1 62.5 -2t76.5 -2t76 -1.5t63 -0.5h32q45 0 83.5 7.5t69.5 26.5t52.5 52t31.5 84h22q-2 -19 -3.5 -39t-3 -45.5t-2.5 -57t-1 -72.5q-38 1 -72.5 2t-68.5 2t-68.5 1.5
t-71.5 0.5h-40v-502q0 -24 4 -41t16.5 -28t36 -16t61.5 -5v-24q-48 2 -95 3t-95 1q-42 0 -83 -1t-83 -3v24z" />
    <glyph glyph-name="afii10098" unicode="&#x491;" horiz-adv-x="418" 
d="M-4 16q13 0 25.5 2.5t22 9t15.5 18t6 29.5v224q0 18 -6 29.5t-15.5 18t-22 9t-25.5 2.5v20q21 -2 49.5 -3t77.5 -1h87q64 0 102.5 32t60.5 95l15 -2l-12 -162q-38 2 -79 3t-102 1h-12v-246q0 -21 4.5 -35t14.5 -23t27 -13.5t43 -7.5v-20q-20 2 -58.5 3t-90.5 1
q-49 0 -77.5 -1t-49.5 -3v20z" />
    <glyph glyph-name="uni0492" unicode="&#x492;" horiz-adv-x="637" 
d="M28 20q33 0 53.5 5t31.5 16t15 28t4 41v214h-104v37h104v153q0 28 -3.5 49t-14.5 35t-31.5 21.5t-54.5 8.5v28q25 -1 62.5 -2t76.5 -2t76 -1.5t63 -0.5q75 0 150 2t151 4q0 -41 1 -72.5t2.5 -57t3 -45.5t3.5 -39h-22q-10 51 -31.5 84t-52.5 52t-69.5 26.5t-83.5 7.5h-92
v-251h184v-37h-184v-214q0 -24 4 -41t16.5 -28t36 -16t61.5 -5v-24q-48 2 -95 3t-95 1q-42 0 -83 -1t-83 -3v24z" />
    <glyph glyph-name="uni0493" unicode="&#x493;" horiz-adv-x="418" 
d="M-4 16q13 0 25.5 2.5t22 9t15.5 18t6 29.5v105h-69v30h69v89q0 18 -6 29.5t-15.5 18t-22 9t-25.5 2.5v20q21 -2 49.5 -3t77.5 -1h72q61 0 102 1t79 3l12 -162l-15 -2q-22 63 -60.5 95t-102.5 32h-27v-131h112v-30h-112v-85q0 -21 5 -35t15.5 -23t28 -13.5t43.5 -7.5v-20
q-20 2 -60 3t-92 1q-49 0 -77.5 -1t-49.5 -3v20z" />
    <glyph glyph-name="uni0496" unicode="&#x496;" horiz-adv-x="1144" 
d="M1152 -183q-26 97 -88 140t-156 43q-5 13 -12 29t-18.5 37.5t-29.5 50.5t-43 67q-33 50 -55 77t-37.5 40t-29 15t-29.5 2h-15v-200q0 -32 5 -50.5t17.5 -28.5t33 -13.5t50.5 -5.5v-24q-45 2 -85.5 3t-85.5 1t-87.5 -1t-87.5 -3v24q30 2 50.5 5.5t33 13.5t17.5 28.5
t5 50.5v200h-15q-17 0 -30 -2t-28.5 -15t-37.5 -40t-55 -77q-26 -38 -43.5 -67t-29 -50.5t-19 -37.5t-11.5 -29h-94q-43 0 -81 -1t-81 -3v24q53 4 96.5 32t72.5 72l169 251q-16 19 -26.5 41.5t-27.5 59.5q-14 31 -32 50.5t-33 24.5q-10 -10 -22 -17t-36 -7q-17 0 -29 7
t-20 17.5t-12 22.5t-4 23q0 26 18.5 46.5t60.5 20.5q45 0 72.5 -31t52.5 -89q15 -31 27 -64.5t30.5 -61.5t47.5 -46t79 -18h41v154q0 32 -3.5 54.5t-15 37t-33 22t-57.5 10.5v24q85 -6 172 -6q44 0 90.5 1.5t89.5 4.5v-24q-36 -3 -57.5 -10.5t-33 -22t-15 -37t-3.5 -54.5
v-154h41q50 0 79 18t47.5 46t30.5 61.5t27 64.5q25 58 52.5 89t72.5 31q42 0 60.5 -20.5t18.5 -46.5q0 -11 -4 -23t-12 -22.5t-20.5 -17.5t-28.5 -7q-24 0 -36 7t-22 17q-15 -5 -33 -24.5t-32 -50.5q-17 -37 -27.5 -59.5t-26.5 -41.5l169 -251q29 -44 72.5 -69.5t96.5 -29.5
q0 -53 3.5 -108.5t8.5 -95.5l-24 -4v0z" />
    <glyph glyph-name="uni0497" unicode="&#x497;" horiz-adv-x="805" 
d="M783 -146q-21 78 -69 112t-120 34q-4 11 -9.5 26.5t-15.5 32.5l-32 58q-11 19 -20 30.5t-18 17t-18 7t-18 1.5h-19v-98q0 -18 7 -29.5t17.5 -18t23 -9t23.5 -2.5v-20q-20 2 -49 3t-81 1t-81 -1t-49 -3v20q11 0 23.5 2.5t23 9t17.5 18t7 29.5v98h-19q-9 0 -18 -1.5t-18 -7
t-18.5 -17t-19.5 -30.5l-32 -58q-10 -17 -15.5 -32.5t-9.5 -26.5h-83q-25 0 -57 -1.5t-56 -2.5v20q30 2 56.5 18.5t40.5 36.5l105 156q-14 25 -27 42.5t-29 21.5q-8 -8 -20.5 -15.5t-32.5 -7.5q-28 0 -43 20.5t-15 42.5q0 27 19 43t46 16q35 0 58.5 -28t49.5 -74
q8 -14 18.5 -28.5t24 -26.5t31 -20t39.5 -8h25v94q0 18 -7 29.5t-17.5 18t-23 9t-23.5 2.5v20q20 -2 48.5 -3t80.5 -1t81.5 1t49.5 3v-20q-11 0 -23.5 -2.5t-23 -9t-17.5 -18t-7 -29.5v-94h25q22 0 39.5 8t31 20t24 26.5t18.5 28.5q26 46 49.5 74t58.5 28q27 0 46 -16
t19 -43q0 -22 -15 -42.5t-43 -20.5q-20 0 -32.5 7.5t-20.5 15.5q-16 -4 -29 -21.5t-27 -42.5l105 -156q14 -20 41.5 -34.5t57.5 -16.5q0 -42 3 -86.5t7 -76.5l-19 -3v0z" />
    <glyph glyph-name="uni0498" unicode="&#x498;" horiz-adv-x="624" 
d="M274 -222q-26 0 -52 3t-50 14l16 37q14 -7 29 -11.5t32 -4.5q29 0 44.5 13t15.5 27q0 21 -14.5 31.5t-32.5 10.5q-7 0 -14.5 -2.5t-15.5 -4.5l-10 8l36 82q-56 3 -99 17t-73 36.5t-45.5 53t-15.5 65.5q0 14 5.5 29t15.5 27t25 19.5t33 7.5q34 0 53 -21t19 -44
q0 -19 -8.5 -36.5t-20.5 -24.5q3 -13 10.5 -28t23 -28t39 -21.5t58.5 -8.5q78 0 117 43t39 116q0 47 -16.5 75t-42.5 43t-58 19.5t-62 4.5h-41v40h31q39 0 69.5 7.5t52 24.5t32.5 44.5t11 67.5q0 59 -32 90.5t-91 31.5q-39 0 -70.5 -18t-56.5 -46t-44 -62t-32 -66l-19 3
q5 43 7 95.5t2 97.5q25 0 49.5 5.5t53 12t63.5 12t80 5.5q60 0 104.5 -14t73.5 -37.5t43.5 -52.5t14.5 -59q0 -33 -11 -59t-29 -45.5t-42 -32.5t-51 -19q28 -9 57 -21.5t52 -33.5t37.5 -51.5t14.5 -73.5q0 -53 -21 -89t-58.5 -58.5t-91 -32.5t-117.5 -11l-20 -48q10 2 20 3
t20 1q39 0 61 -18.5t22 -51.5q0 -45 -35.5 -66.5t-89.5 -21.5z" />
    <glyph glyph-name="uni0499" unicode="&#x499;" horiz-adv-x="438" 
d="M188 -222q-26 0 -52 3t-50 14l16 37q14 -7 29 -11.5t32 -4.5q29 0 44.5 13t15.5 27q0 21 -14.5 31.5t-32.5 10.5q-7 0 -14.5 -2.5t-15.5 -4.5l-10 8l37 85q-46 1 -77.5 11t-50.5 26t-27 36t-8 41q0 34 21 50.5t42 16.5q15 0 26 -5.5t18 -14t10 -17.5t3 -15
q0 -20 -7.5 -30.5t-15.5 -16.5q1 -7 4.5 -15.5t10.5 -15.5t19 -12t32 -5q45 0 67 22.5t22 64.5q0 27 -8.5 42.5t-22.5 23t-31.5 9.5t-35.5 2h-29v33h26q43 0 69.5 19t26.5 59q0 27 -20 43.5t-49 16.5q-21 0 -41 -9.5t-37.5 -25t-30.5 -36.5t-21 -43l-19 2q1 12 2 29t2 35
t1 35v29q15 0 33.5 3.5t40 7t46 7t50.5 3.5q34 0 64.5 -5.5t53 -17.5t35.5 -31t13 -45q0 -38 -22 -60t-52 -30q16 -5 32.5 -13t29.5 -20.5t21.5 -29.5t8.5 -40q0 -32 -15.5 -53.5t-41 -34t-59.5 -18.5t-70 -7l-22 -53q10 2 20 3t20 1q39 0 61 -18.5t22 -51.5
q0 -45 -35.5 -66.5t-89.5 -21.5z" />
    <glyph glyph-name="uni049A" unicode="&#x49a;" horiz-adv-x="782" 
d="M790 -183q-26 97 -88 140t-156 43q-5 13 -12 29t-18.5 37.5t-29.5 50.5t-43 67q-33 50 -55 77t-37.5 40t-29 15t-29.5 2h-35v-200q0 -32 5 -50.5t17.5 -28.5t33 -13.5t50.5 -5.5v-24q-45 2 -87.5 3t-87.5 1q-42 0 -84.5 -1t-84.5 -3v24q30 2 50 6t32 14t17 28.5t5 49.5
v390q0 35 -2.5 57.5t-13 36t-31 20t-55.5 10.5v24q85 -6 173 -6q86 0 172 6v-24q-36 -3 -57.5 -10.5t-33 -22t-15 -37t-3.5 -54.5v-154h61q50 0 80.5 18t51 46t34 61.5t28.5 64.5q25 58 52.5 89t72.5 31t63.5 -21.5t18.5 -47.5t-17 -49t-50 -23q-24 0 -36.5 9t-22.5 19
q-15 -5 -33 -24.5t-32 -50.5q-17 -37 -32.5 -59.5t-31.5 -41.5l169 -251q29 -44 72.5 -69.5t96.5 -29.5q0 -53 3.5 -108.5t8.5 -95.5l-24 -4v0z" />
    <glyph glyph-name="uni049B" unicode="&#x49b;" horiz-adv-x="544" 
d="M528 -146q-21 78 -69 112t-114 34q-4 11 -12.5 27t-19.5 32l-42 58q-22 31 -38.5 42t-35.5 11h-14v-95q0 -18 7 -29.5t17.5 -18t23 -9t23.5 -2.5v-20q-20 2 -49.5 3t-81.5 1q-49 0 -77.5 -1t-49.5 -3v20q13 0 25.5 2.5t22 9t15.5 18t6 29.5v224q0 18 -6 29.5t-15.5 18
t-22 9t-25.5 2.5v20q21 -2 49.5 -3t77.5 -1q52 0 81.5 1t49.5 3v-20q-11 0 -23.5 -2.5t-23 -9t-17.5 -18t-7 -29.5v-91h25q22 0 39.5 7.5t31.5 19t24 25.5t18 28q27 52 51.5 77t56.5 25q33 0 49 -18t16 -41q0 -11 -3.5 -22.5t-10.5 -21.5t-18 -16t-26 -6q-20 0 -32.5 9
t-20.5 17q-16 -4 -31.5 -23.5t-29.5 -44.5l115 -152q15 -20 42.5 -34.5t57.5 -16.5q0 -42 3 -86.5t7 -76.5l-19 -3v0z" />
    <glyph glyph-name="uni049C" unicode="&#x49c;" horiz-adv-x="812" 
d="M19 20q30 2 50 6t32 14t17 28.5t5 49.5v390q0 35 -2.5 57.5t-13 36t-31 20t-55.5 10.5v24q85 -6 173 -6q86 0 172 6v-24q-36 -3 -57.5 -10.5t-33 -22t-15 -37t-3.5 -54.5v-154h79v153h42v-151q40 6 65 25t42.5 46t30 57.5t26.5 59.5q25 58 52.5 89t72.5 31t63.5 -21.5
t18.5 -47.5t-17 -49t-50 -23q-24 0 -36.5 9t-22.5 19q-15 -5 -33 -24.5t-32 -50.5q-17 -37 -32.5 -59.5t-31.5 -41.5l169 -251q29 -44 72.5 -72t96.5 -32v-24q-43 2 -81 3t-81 1h-94q-5 13 -12 29t-18.5 37.5t-29.5 50.5t-43 67q-26 38 -44.5 71.5t-32.5 48.5q-11 10 -18 12
v-150h-42v152h-79v-200q0 -32 5 -50.5t17.5 -28.5t33 -13.5t50.5 -5.5v-24q-45 2 -87.5 3t-87.5 1q-42 0 -84.5 -1t-84.5 -3v24z" />
    <glyph glyph-name="uni049D" unicode="&#x49d;" horiz-adv-x="574" 
d="M-4 16q13 0 25.5 2.5t22 9t15.5 18t6 29.5v224q0 18 -6 29.5t-15.5 18t-22 9t-25.5 2.5v20q21 -2 49.5 -3t77.5 -1q52 0 81.5 1t49.5 3v-20q-11 0 -23.5 -2.5t-23 -9t-17.5 -18t-7 -29.5v-91h48v94h35v-91q32 8 52 31t33 46q27 52 51.5 77t56.5 25q33 0 49 -18t16 -41
q0 -11 -3.5 -22.5t-10.5 -21.5t-18 -16t-26 -6q-20 0 -32.5 9t-20.5 17q-16 -4 -31.5 -23.5t-29.5 -44.5l115 -152q15 -20 42 -36.5t57 -18.5v-20q-24 1 -58.5 2.5t-59.5 1.5h-73q-4 11 -12.5 27t-19.5 32l-42 58q-14 18 -21 29t-14 17v-85h-35v92h-48v-95q0 -18 7 -29.5
t17.5 -18t23 -9t23.5 -2.5v-20q-20 2 -49.5 3t-81.5 1q-49 0 -77.5 -1t-49.5 -3v20z" />
    <glyph glyph-name="uni04A0" unicode="&#x4a0;" horiz-adv-x="884" 
d="M121 20q30 2 50 6t32 14t17 28.5t5 49.5v494q-37 0 -67 -6.5t-53 -24.5t-39.5 -50t-27.5 -84h-26q2 19 3.5 38.5t3 43.5t2.5 55t1 72q37 -1 69.5 -2t63.5 -2t63 -1.5t69 -0.5q44 0 91 1.5t90 4.5v-24q-36 -3 -57.5 -10.5t-33 -22t-15 -37t-3.5 -54.5v-154h61
q50 0 80.5 18t51 46t34 61.5t28.5 64.5q25 58 52.5 89t72.5 31t63.5 -21.5t18.5 -47.5t-17 -49t-50 -23q-24 0 -36.5 9t-22.5 19q-15 -5 -33 -24.5t-32 -50.5q-17 -37 -32.5 -59.5t-31.5 -41.5l169 -251q29 -44 72.5 -72t96.5 -32v-24q-43 2 -81 3t-81 1h-94q-5 13 -12 29
t-18.5 37.5t-29.5 50.5t-43 67q-33 50 -55 77t-37.5 40t-29 15t-29.5 2h-35v-200q0 -32 5 -50.5t17.5 -28.5t33 -13.5t50.5 -5.5v-24q-45 2 -87.5 3t-87.5 1q-42 0 -84.5 -1t-84.5 -3v24z" />
    <glyph glyph-name="uni04A1" unicode="&#x4a1;" horiz-adv-x="639" 
d="M91 16q13 0 25.5 2.5t22 9t15.5 18t6 29.5v266q-55 -1 -84.5 -30.5t-50.5 -91.5l-15 2l12 157q19 -1 34.5 -2t32.5 -1.5t38 -0.5h51h40q52 0 81.5 1t49.5 3v-20q-11 0 -23.5 -2.5t-23 -9t-17.5 -18t-7 -29.5v-91h25q22 0 39.5 7.5t31.5 19t24 25.5t18 28q27 52 51.5 77
t56.5 25q33 0 49 -18t16 -41q0 -11 -3.5 -22.5t-10.5 -21.5t-18 -16t-26 -6q-20 0 -32.5 9t-20.5 17q-16 -4 -31.5 -23.5t-29.5 -44.5l115 -152q15 -20 42 -36.5t57 -18.5v-20q-24 1 -58.5 2.5t-59.5 1.5h-73q-4 11 -12.5 27t-19.5 32l-42 58q-22 31 -38.5 42t-35.5 11h-14
v-95q0 -18 7 -29.5t17.5 -18t23 -9t23.5 -2.5v-20q-20 2 -49.5 3t-81.5 1q-49 0 -77.5 -1t-49.5 -3v20z" />
    <glyph glyph-name="uni04A2" unicode="&#x4a2;" horiz-adv-x="852" 
d="M831 -183q-13 48 -35 83t-49.5 57t-59 32.5t-64.5 10.5t-64.5 -1t-74.5 -3v24q30 2 50 6t32.5 14t17.5 28.5t5 49.5v216h-332v-216q0 -32 5 -50.5t17.5 -28.5t33 -13.5t50.5 -5.5v-24q-45 2 -87.5 3t-87.5 1q-42 0 -84.5 -1t-84.5 -3v24q30 2 50 6t32 14t17 28.5t5 49.5
v390q0 35 -2.5 57.5t-13 36t-31 20t-55.5 10.5v24q85 -6 173 -6q86 0 172 6v-24q-38 -4 -59.5 -10.5t-32.5 -20t-14 -36t-3 -57.5v-132h332v132q0 35 -2.5 57.5t-13.5 36t-32.5 20t-59.5 10.5v24q88 -6 176 -6q86 0 172 6v-24q-37 -4 -58 -10.5t-31.5 -20t-13.5 -36
t-3 -57.5v-340q0 -42 3.5 -67.5t16 -40t36.5 -21t64 -10.5q0 -26 1 -54.5t2.5 -56t4 -52.5l4.5 -45l-24 -4v0z" />
    <glyph glyph-name="uni04A3" unicode="&#x4a3;" horiz-adv-x="556" 
d="M536 -146q-11 39 -29 66.5t-42 45t-51.5 26t-55.5 8.5q-17 0 -37 -1t-40 -3v20q11 0 22.5 2.5t21 9t15.5 18t6 29.5v102h-163v-102q0 -18 6 -29.5t15.5 -18t21 -9t22.5 -2.5v-20q-10 1 -21 2t-25.5 1.5t-33.5 0.5h-45q-49 0 -77.5 -1t-49.5 -3v20q13 0 25.5 2.5t22 9
t15.5 18t6 29.5v224q0 18 -6 29.5t-15.5 18t-22 9t-25.5 2.5v20q21 -2 49.5 -3t77.5 -1h45t33.5 0.5t25.5 1.5t21 2v-20q-11 0 -22.5 -2.5t-21 -9t-15.5 -18t-6 -29.5v-84h163v84q0 18 -6 29.5t-15.5 18t-21 9t-22.5 2.5v20q19 -2 46 -3t79 -1q49 0 77.5 1t49.5 3v-20
q-13 0 -25.5 -2.5t-22 -9t-15.5 -18t-6 -29.5v-166q0 -33 3.5 -53.5t12.5 -32.5t25 -17t40 -8q0 -42 3 -87.5t7 -77.5l-19 -3v0z" />
    <glyph glyph-name="uni04A4" unicode="&#x4a4;" horiz-adv-x="1094" 
d="M19 20q30 2 50 6t32 14t17 28.5t5 49.5v390q0 35 -2.5 57.5t-13 36t-31 20t-55.5 10.5v24q85 -6 173 -6q86 0 172 6v-24q-38 -4 -59.5 -10.5t-32.5 -20t-14 -36t-3 -57.5v-132h332v132q0 35 -2.5 57.5t-13.5 36t-32.5 20t-59.5 10.5v24q88 -6 176 -6h106q75 0 150 2
t151 4q0 -41 1 -72.5t2.5 -57t3 -45.5t3.5 -39h-22q-10 51 -31.5 84t-52.5 52t-69.5 26.5t-83.5 7.5h-92v-502q0 -24 4 -41t16.5 -28t36 -16t61.5 -5v-24q-48 2 -92.5 3t-92.5 1q-43 0 -86 -1t-86 -3v24q30 2 50 6t32.5 14t17.5 28.5t5 49.5v216h-332v-216q0 -32 5 -50.5
t17.5 -28.5t33 -13.5t50.5 -5.5v-24q-45 2 -87.5 3t-87.5 1q-42 0 -84.5 -1t-84.5 -3v24z" />
    <glyph glyph-name="uni04A5" unicode="&#x4a5;" horiz-adv-x="699" 
d="M-4 16q13 0 25.5 2.5t22 9t15.5 18t6 29.5v224q0 18 -6 29.5t-15.5 18t-22 9t-25.5 2.5v20q21 -2 49.5 -3t77.5 -1h45t33.5 0.5t25.5 1.5t21 2v-20q-11 0 -22.5 -2.5t-21 -9t-15.5 -18t-6 -29.5v-84h163v84q0 18 -6 29.5t-15.5 18t-21 9t-22.5 2.5v20q19 -2 46 -3t79 -1
h70q61 0 102 1t79 3l12 -162l-15 -2q-22 63 -60.5 95t-102.5 32h-27v-246q0 -21 4.5 -35t14.5 -23t27 -13.5t43 -7.5v-20q-20 2 -57.5 3t-89.5 1t-79 -1t-46 -3v20q11 0 22.5 2.5t21 9t15.5 18t6 29.5v102h-163v-102q0 -18 6 -29.5t15.5 -18t21 -9t22.5 -2.5v-20
q-10 1 -21 2t-25.5 1.5t-33.5 0.5h-45q-49 0 -77.5 -1t-49.5 -3v20z" />
    <glyph glyph-name="uni04AA" unicode="&#x4aa;" horiz-adv-x="722" 
d="M388 -222q-26 0 -52 3t-50 14l16 37q14 -7 29 -11.5t32 -4.5q29 0 44.5 13t15.5 27q0 21 -14.5 31.5t-32.5 10.5q-7 0 -14.5 -2.5t-15.5 -4.5l-10 8l35 82q-72 2 -133 27t-105 69.5t-69 107.5t-25 140q0 78 27 141.5t75 108.5t115 70t147 25q28 0 66 -5.5t73 -12.5
q36 -7 63 -12.5t32 -5.5q9 0 11 1q0 -20 -1 -38.5t-1 -38.5q0 -42 3 -83.5t8 -83.5h-25q-7 46 -28 88.5t-52 75t-71 52t-85 19.5q-60 0 -101 -27t-66 -68.5t-35.5 -92.5t-10.5 -99q0 -62 17 -114.5t50 -91t82.5 -60t115.5 -21.5q47 0 85.5 14t69 36t54 49.5t41.5 54.5
l24 -25q-54 -91 -131 -142.5t-180 -57.5l-21 -49q10 2 20 3t20 1q39 0 61 -18.5t22 -51.5q0 -45 -35.5 -66.5t-89.5 -21.5z" />
    <glyph glyph-name="uni04AB" unicode="&#x4ab;" horiz-adv-x="444" 
d="M208 -222q-26 0 -52 3t-50 14l16 37q14 -7 29 -11.5t32 -4.5q29 0 44.5 13t15.5 27q0 21 -14.5 31.5t-32.5 10.5q-7 0 -14.5 -2.5t-15.5 -4.5l-10 8l38 88q-39 6 -73.5 21.5t-61 41t-42 60t-15.5 77.5q0 48 20 86t52.5 64t74.5 39.5t87 13.5q35 0 64 -6t58 -6h25
q0 -15 0.5 -37t2 -46.5t3.5 -49t5 -43.5h-19q-8 21 -20.5 47.5t-29.5 49t-40 38t-53 15.5q-49 0 -75.5 -35t-26.5 -87q0 -41 11 -75t31.5 -58.5t49.5 -38.5t64 -14q32 0 58.5 10.5t57.5 32.5l23 -23q-45 -38 -91.5 -59t-97.5 -21h-4l-22 -52q10 2 20 3t20 1q39 0 61 -18.5
t22 -51.5q0 -45 -35.5 -66.5t-89.5 -21.5z" />
    <glyph glyph-name="uni04AE" unicode="&#x4ae;" horiz-adv-x="722" 
d="M204 20q33 1 53.5 5t32 14t15.5 27.5t4 44.5v173l-208 274q-26 34 -54 54t-74 20v24q45 -2 87.5 -4t87.5 -2q91 0 181 6v-24q-34 0 -60 -11.5t-26 -38.5q0 -10 18.5 -36.5t45.5 -62.5t59 -79t59 -85q7 11 19 31t26 44.5t29 51t26.5 51t19 44t7.5 30.5q0 35 -22.5 47.5
t-52.5 13.5v24q35 -2 69.5 -4t69.5 -2q32 0 63.5 2t63.5 4v-24q-30 -1 -52 -12t-41 -30t-38 -46.5t-42 -61.5l-127 -190v-181q0 -27 4 -44.5t15.5 -27.5t32 -14t53.5 -5v-24q-43 2 -84.5 3t-83.5 1q-45 0 -88 -1t-88 -3v24z" />
    <glyph glyph-name="uni04AF" unicode="&#x4af;" horiz-adv-x="525" 
d="M110 -216q28 0 50 11.5t22 47.5v175l-117 257q-15 34 -37 56t-62 27v20q38 -2 74.5 -3t74.5 -1q32 0 63 1t63 3v-20q-21 -3 -39.5 -15.5t-18.5 -38.5q0 -19 13 -53t30 -71.5t34 -72.5t25 -56q8 20 25 56.5t34.5 75.5t31 74t13.5 52q0 27 -18 38t-42 11v20q26 -2 52.5 -3
t52.5 -1q23 0 45.5 1t45.5 3v-20q-32 0 -57.5 -26.5t-51.5 -86.5q-7 -16 -20.5 -43t-30 -58.5t-33.5 -64t-32 -60.5v-176q0 -36 22 -47.5t51 -11.5v-20l-26 2t-28 1.5t-34 0.5h-45q-49 0 -78 -1t-52 -3v20z" />
    <glyph glyph-name="uni04B0" unicode="&#x4b0;" horiz-adv-x="722" 
d="M204 20q33 1 53.5 5t32 14t15.5 27.5t4 44.5v98h-156v37h156v38l-208 274q-26 34 -54 54t-74 20v24q45 -2 87.5 -4t87.5 -2q91 0 181 6v-24q-34 0 -60 -11.5t-26 -38.5q0 -10 18.5 -36.5t45.5 -62.5t59 -79t59 -85q7 11 19 31t26 44.5t29 51t26.5 51t19 44t7.5 30.5
q0 35 -22.5 47.5t-52.5 13.5v24q35 -2 69.5 -4t69.5 -2q32 0 63.5 2t63.5 4v-24q-30 -1 -52 -12t-41 -30t-38 -46.5t-42 -61.5l-127 -190v-46h156v-37h-156v-98q0 -27 4 -44.5t15.5 -27.5t32 -14t53.5 -5v-24q-43 2 -84.5 3t-83.5 1q-45 0 -88 -1t-88 -3v24z" />
    <glyph glyph-name="uni04B1" unicode="&#x4b1;" horiz-adv-x="525" 
d="M110 -216q28 0 50 11.5t22 47.5v67h-108v30h108v78l-117 257q-15 34 -37 56t-62 27v20q38 -2 74.5 -3t74.5 -1q32 0 63 1t63 3v-20q-21 -3 -39.5 -15.5t-18.5 -38.5q0 -19 13 -53t30 -71.5t34 -72.5t25 -56q8 20 25 56.5t34.5 75.5t31 74t13.5 52q0 27 -18 38t-42 11v20
q26 -2 52.5 -3t52.5 -1q23 0 45.5 1t45.5 3v-20q-32 0 -57.5 -26.5t-51.5 -86.5q-7 -16 -20.5 -43t-30 -58.5t-33.5 -64t-32 -60.5v-79h108v-30h-108v-67q0 -36 22 -47.5t51 -11.5v-20l-26 2t-28 1.5t-34 0.5h-45q-49 0 -78 -1t-52 -3v20z" />
    <glyph glyph-name="uni04B2" unicode="&#x4b2;" horiz-adv-x="741" 
d="M768 -183q-26 97 -88 140t-156 43h-29t-29 -0.5t-33 -1.5t-42 -2v24q15 0 30.5 2t28 8t20.5 17.5t8 29.5q0 11 -14 32.5t-35.5 50t-46.5 61.5t-46 66q-11 -17 -34 -47.5t-46.5 -63t-41.5 -61.5t-18 -43q0 -30 28 -39.5t70 -12.5v-24q-39 2 -78 3t-78 1q-54 0 -89.5 -1
t-52.5 -3v28q37 2 68.5 18t58.5 39.5t50 51.5t43 53l100 127l-174 229q-17 22 -32 39t-30 28t-31 17t-37 6v24q85 -6 169 -6q42 0 82 2t82 4v-24q-24 0 -43.5 -7.5t-19.5 -32.5q0 -12 16 -38t37 -55t41 -55.5t28 -39.5q9 16 27.5 40.5t37 51t33 51.5t14.5 41q0 13 -8 22
t-19 13.5t-24 6.5t-23 2v24q32 -2 63.5 -4t63.5 -2q67 0 135 6v-24q-41 0 -77.5 -24t-70.5 -61.5t-66 -82.5t-65 -87l186 -253q31 -42 73.5 -68.5t95.5 -30.5q0 -53 3.5 -108.5t8.5 -95.5l-24 -4v0z" />
    <glyph glyph-name="uni04B3" unicode="&#x4b3;" horiz-adv-x="537" 
d="M520 -146q-21 78 -69 112t-120 34h-24t-23 -0.5t-26 -1.5t-33 -2v20q23 2 39 7.5t16 24.5q0 9 -6.5 21.5t-15.5 25.5t-19 26.5t-18 25.5q-9 -9 -24 -20.5t-29.5 -24.5t-25.5 -27t-11 -27q0 -19 15 -24.5t30 -7.5v-20q-24 2 -48.5 3t-48.5 1t-48.5 -1t-48.5 -3v20
q25 7 45 18t44 29t55.5 44.5t78.5 64.5q-42 51 -69.5 84t-49 53t-42 31t-48.5 18v20q35 -2 69 -3t69 -1q34 0 68 1t69 3v-20q-17 -1 -29.5 -9t-12.5 -24q0 -8 7.5 -20t17 -25t19 -24.5t13.5 -17.5q9 7 20 17t20.5 22t16.5 25t7 25t-10.5 21.5t-24.5 9.5v20q24 -2 48.5 -3
t48.5 -1t48.5 1t48.5 3v-20q-24 -6 -42 -14.5t-39 -24.5t-50 -41t-75 -64q31 -41 54.5 -70.5t42.5 -49.5t35 -33t33 -22q29 -16 61 -19q0 -42 3 -86.5t7 -76.5l-19 -3v0z" />
    <glyph glyph-name="uni04B6" unicode="&#x4b6;" horiz-adv-x="782" 
d="M761 -183q-13 48 -35 83t-49.5 57t-59 32.5t-64.5 10.5t-74.5 -1t-84.5 -3v24q30 2 53.5 6t39 14t24 28.5t8.5 49.5v175q-18 -8 -43 -17.5t-54 -17t-61.5 -12.5t-65.5 -5q-61 0 -98.5 19.5t-58.5 46.5t-28.5 57t-7.5 51v93q0 35 -2.5 57.5t-13 36t-31 20t-55.5 10.5v24
q43 -3 82.5 -4.5t83.5 -1.5t81.5 1.5t80.5 4.5v-24q-36 -4 -56 -10.5t-29.5 -20t-11.5 -36t-2 -57.5v-69q0 -26 4 -51t17.5 -44.5t39.5 -31.5t70 -12q35 0 76.5 10.5t82.5 24.5v173q0 35 -2.5 57.5t-13.5 36t-32.5 20t-59.5 10.5v24q88 -6 176 -6q86 0 172 6v-24
q-37 -4 -58 -10.5t-31.5 -20t-13.5 -36t-3 -57.5v-340q0 -42 3.5 -67.5t16 -40t36.5 -21t64 -10.5q0 -26 1 -54.5t2.5 -56t4 -52.5l4.5 -45l-24 -4v0z" />
    <glyph glyph-name="uni04B7" unicode="&#x4b7;" horiz-adv-x="547" 
d="M527 -146q-11 39 -29 66.5t-42 45t-51.5 26t-55.5 8.5h-21.5t-26 -0.5t-26.5 -1.5t-23 -2v20q11 0 25.5 2.5t28 9t22.5 18t9 29.5v89q-11 -4 -28.5 -9.5t-39 -10.5t-45 -8.5t-45.5 -3.5q-35 0 -58 8.5t-37 22t-19.5 31t-5.5 35.5v63q0 40 -17 52t-52 14v20q12 -1 28.5 -2
t34 -1.5t34 -0.5h28.5h29t33 0.5t33.5 1.5t28.5 2v-20q-22 -1 -35 -6.5t-19.5 -14.5t-8.5 -20.5t-2 -24.5v-36q0 -20 2 -34.5t8.5 -25t19 -15.5t33.5 -5q22 0 48 7t52 16v100q0 18 -6 29.5t-15.5 18t-21 9t-22.5 2.5v20q19 -2 46 -3t79 -1q49 0 77.5 1t49.5 3v-20
q-13 0 -25.5 -2.5t-22 -9t-15.5 -18t-6 -29.5v-166q0 -33 3.5 -53.5t12.5 -32.5t25 -17t40 -8q0 -42 3 -87.5t7 -77.5l-19 -3v0z" />
    <glyph glyph-name="uni04B8" unicode="&#x4b8;" horiz-adv-x="782" 
d="M394 20q30 2 53.5 6t39 14t24 28.5t8.5 49.5v175q-23 -10 -54 -21t-67 -19v-134h-42v126q-15 -2 -30.5 -3t-30.5 -1q-61 0 -98.5 19.5t-58.5 46.5t-28.5 57t-7.5 51v93q0 35 -2.5 57.5t-13 36t-31 20t-55.5 10.5v24q43 -3 82.5 -4.5t83.5 -1.5t81.5 1.5t80.5 4.5v-24
q-36 -4 -56 -10.5t-29.5 -20t-11.5 -36t-2 -57.5v-69q0 -26 4 -51t17 -44.5t38.5 -31.5t67.5 -12v154h42v-151q29 4 60 12.5t61 19.5v173q0 35 -2.5 57.5t-13.5 36t-32.5 20t-59.5 10.5v24q88 -6 176 -6q86 0 172 6v-24q-37 -4 -58 -10.5t-31.5 -20t-13.5 -36t-3 -57.5v-390
q0 -31 5 -49.5t17 -28.5t32.5 -14t51.5 -6v-24q-43 2 -86.5 3t-86.5 1t-96 -1t-96 -3v24z" />
    <glyph glyph-name="uni04B9" unicode="&#x4b9;" horiz-adv-x="547" 
d="M252 16q11 0 25.5 2.5t28 9t22.5 18t9 29.5v89q-11 -4 -28.5 -9.5t-38.5 -10.5v-88h-35v81q-14 -2 -28 -3.5t-28 -1.5q-35 0 -58 8.5t-37 22t-19.5 31t-5.5 35.5v63q0 40 -17 52t-52 14v20q12 -1 28.5 -2t34 -1.5t34 -0.5h28.5h29t33 0.5t33.5 1.5t28.5 2v-20
q-22 -1 -35 -6.5t-19.5 -14.5t-8.5 -20.5t-2 -24.5v-36q0 -39 10 -59.5t51 -20.5v87h35v-84q16 3 33 8.5t34 11.5v100q0 18 -6 29.5t-15.5 18t-21 9t-22.5 2.5v20q19 -2 46 -3t79 -1q49 0 77.5 1t49.5 3v-20q-13 0 -25.5 -2.5t-22 -9t-15.5 -18t-6 -29.5v-224q0 -18 6 -29.5
t15.5 -18t22 -9t25.5 -2.5v-20q-21 2 -49.5 3t-77.5 1q-52 0 -88.5 -1t-56.5 -3v20z" />
    <glyph glyph-name="uni04BA" unicode="&#x4ba;" horiz-adv-x="795" 
d="M19 20q38 3 60 9t33 19t14 34.5t3 55.5v370q0 35 -2.5 57.5t-13 36t-31 20t-55.5 10.5v24q85 -6 173 -6q86 0 172 6v-24q-38 -4 -59.5 -10.5t-32.5 -20t-14 -36t-3 -57.5v-155q18 7 42.5 16t54.5 16.5t63.5 13t68.5 5.5q61 0 100 -18.5t61.5 -45t31 -55.5t8.5 -50v-93
q0 -35 2.5 -58t13 -36.5t31 -19.5t55.5 -8v-24q-43 3 -86.5 3.5t-87.5 0.5t-86.5 -0.5t-85.5 -3.5v24q37 4 59 10.5t33 19.5t14 35t3 57v69q0 26 -4 51t-17.5 44.5t-39.5 31.5t-70 12q-37 0 -79.5 -12t-84.5 -29v-171q0 -34 3 -55.5t14 -34.5t33 -19t60 -9v-24
q-42 2 -84.5 3t-85.5 1q-46 0 -91 -1t-93 -3v24z" />
    <glyph glyph-name="uni04BB" unicode="&#x4bb;" horiz-adv-x="556" 
d="M-8 16q28 0 50 11.5t22 47.5v545q0 50 -66 50v20q49 2 98 7t86 15v-386q35 30 69.5 47t79.5 17q61 0 96.5 -34.5t35.5 -92.5v-188q0 -18 6 -29.5t15.5 -18t21 -9t22.5 -2.5v-20q-10 1 -21 2t-25.5 1.5t-33.5 0.5h-45q-49 0 -77 -1t-45 -3v20q11 0 22.5 2.5t20.5 9t15 18
t6 29.5v186q0 34 -23.5 49.5t-55.5 15.5q-24 0 -45.5 -11t-38.5 -28v-212q0 -18 6 -29.5t15.5 -18t21 -9t22.5 -2.5v-20q-10 1 -21 2t-25.5 1.5t-33.5 0.5h-45q-49 0 -78 -1t-52 -3v20z" />
    <glyph glyph-name="uni04C0" unicode="&#x4c0;" horiz-adv-x="407" 
d="M21 20q61 3 86 21t25 57v424q0 59 -22.5 83.5t-84.5 26.5v24q46 -2 91 -4t91 -2q45 0 86.5 2t86.5 4v-24q-35 -1 -57 -7.5t-34.5 -19t-17.5 -33t-5 -50.5v-424q0 -39 25 -57t86 -21l-2 -24q-45 2 -87 3t-87 1t-90 -1t-90 -3v24z" />
    </font>
</defs>
</svg>
