<?xml version="1.0" standalone="no"?>
<!DOCTYPE svg PUBLIC "-//W3C//DTD SVG 1.1//EN" "http://www.w3.org/Graphics/SVG/1.1/DTD/svg11.dtd" >
<svg xmlns="http://www.w3.org/2000/svg">
<metadata>Generated by IcoMoon</metadata>
<defs>
<font id="icomoon" horiz-adv-x="1024">
<font-face units-per-em="1024" ascent="960" descent="-64" />
<missing-glyph horiz-adv-x="1024" />
<glyph unicode="&#x20;" horiz-adv-x="512" d="" />
<glyph unicode="&#xe900;" glyph-name="uniE900" d="M512 922.88c262.265-0.005 474.872-212.614 474.872-474.88 0-131.132-53.151-249.851-139.085-335.787v0c-85.765-84.936-203.808-137.414-334.107-137.414-262.269 0-474.88 212.611-474.88 474.88 0 130.299 52.478 248.342 137.451 334.145l-0.038-0.038c85.463 85.921 203.774 139.095 334.504 139.095 0.451 0 0.902-0.001 1.353-0.002h-0.070zM512 15.787c238.705 0 432.213 193.509 432.213 432.213s-193.509 432.213-432.213 432.213c-238.705 0-432.213-193.509-432.213-432.213v0c0.267-238.597 193.616-431.946 432.188-432.213h0.026zM678.656 494.848h-333.312c-11.782 0-21.333 9.551-21.333 21.333v0c0 11.782 9.551 21.333 21.333 21.333v0h333.312c11.782 0 21.333-9.551 21.333-21.333v0c0-11.782-9.551-21.333-21.333-21.333v0zM678.656 356.224h-333.312c-11.782 0-21.333 9.551-21.333 21.333v0c0 11.782 9.551 21.333 21.333 21.333v0h333.312c11.782 0 21.333-9.551 21.333-21.333v0c0-11.782-9.551-21.333-21.333-21.333v0zM512 194.816c-11.782 0-21.333 9.551-21.333 21.333v0 308.864l169.941 169.941c3.86 3.859 9.193 6.246 15.083 6.246s11.222-2.387 15.083-6.246v0c3.859-3.86 6.246-9.193 6.246-15.083s-2.387-11.222-6.246-15.083l-157.44-157.44v-291.157c0-0.013 0-0.028 0-0.043 0-11.782-9.551-21.333-21.333-21.333 0 0 0 0 0 0v0zM512 494.848c-0.011 0-0.025 0-0.038 0-5.882 0-11.207 2.38-15.066 6.23v0l-157.397 157.397c-3.859 3.86-6.246 9.193-6.246 15.083s2.387 11.222 6.246 15.083v0c3.86 3.859 9.193 6.246 15.083 6.246s11.222-2.387 15.083-6.246l157.397-157.355c3.872-3.862 6.268-9.203 6.268-15.104 0-11.782-9.551-21.333-21.333-21.333-0.013 0-0.027 0-0.040 0h0.002z" />
<glyph unicode="&#xe901;" glyph-name="add-1" d="M811.136 426.667h-598.315c-11.782 0-21.333 9.551-21.333 21.333v0c0 11.782 9.551 21.333 21.333 21.333v0h598.315c11.782 0 21.333-9.551 21.333-21.333v0c0-11.782-9.551-21.333-21.333-21.333v0zM512 127.488c-11.782 0-21.333 9.551-21.333 21.333v0 598.315c0 11.782 9.551 21.333 21.333 21.333v0c11.782 0 21.333-9.551 21.333-21.333v0-598.315c0-11.782-9.551-21.333-21.333-21.333v0zM512 922.88c262.265-0.005 474.872-212.614 474.872-474.88 0-131.132-53.151-249.851-139.085-335.787v0c-86.1-86.941-205.497-140.773-337.466-140.773-262.269 0-474.88 212.611-474.88 474.88 0 131.97 53.832 251.366 140.735 337.429l0.038 0.038c85.463 85.921 203.774 139.095 334.504 139.095 0.451 0 0.902-0.001 1.353-0.002h-0.070zM512 15.787c238.705 0 432.213 193.509 432.213 432.213s-193.509 432.213-432.213 432.213c-238.705 0-432.213-193.509-432.213-432.213v0c0.267-238.597 193.616-431.946 432.188-432.213h0.026z" />
<glyph unicode="&#xe902;" glyph-name="add-2" d="M512-37.291c-0.486-0.002-1.061-0.003-1.637-0.003-133.527 0-254.376 54.281-341.684 141.98l-0.017 0.018c-87.717 87.326-141.997 208.175-141.997 341.702 0 0.575 0.001 1.151 0.003 1.726v-0.089c-0.002 0.486-0.003 1.061-0.003 1.637 0 133.527 54.281 254.376 141.98 341.684l0.018 0.017c87.322 87.691 208.154 141.955 341.659 141.955 0.59 0 1.18-0.001 1.77-0.003h-0.091c0.486 0.002 1.061 0.003 1.637 0.003 133.505 0 254.337-54.263 341.643-141.938l0.017-0.017c87.717-87.326 141.997-208.175 141.997-341.702 0-0.575-0.001-1.151-0.003-1.726v0.089c0.002-0.486 0.003-1.061 0.003-1.637 0-133.527-54.281-254.376-141.98-341.684l-0.018-0.017c-87.326-87.717-208.175-141.997-341.702-141.997-0.56 0-1.12 0.001-1.68 0.003h0.086zM212.864 469.376c-11.782 0-21.333-9.551-21.333-21.333v0c0-11.782 9.551-21.333 21.333-21.333v0h277.803v-277.803c0-11.782 9.551-21.333 21.333-21.333v0c11.782 0 21.333 9.551 21.333 21.333v0 277.803h277.803c11.782 0 21.333 9.551 21.333 21.333v0c0 11.782-9.551 21.333-21.333 21.333v0h-277.803v277.803c0 11.782-9.551 21.333-21.333 21.333v0c-11.782 0-21.333-9.551-21.333-21.333v0-277.803z" />
<glyph unicode="&#xe903;" glyph-name="add-file" d="M233.728 918.997h371.541c22.171-0.186 42.059-9.801 55.879-25.025l0.057-0.063 184.96-201.771c13.789-15.18 22.232-35.434 22.232-57.659 0-0.219-0.001-0.438-0.002-0.657v0.034-579.669c0.021-0.689 0.033-1.499 0.033-2.312 0-43.763-34.678-79.427-78.054-81.012l-0.145-0.004h-556.501c-43.521 1.589-78.198 37.253-78.198 81.016 0 0.813 0.012 1.623 0.036 2.43l-0.003-0.118v781.483c-0.021 0.689-0.033 1.499-0.033 2.312 0 43.763 34.678 79.427 78.054 81.012l0.145 0.004zM790.229 13.525c19.955 1.518 35.572 18.083 35.572 38.296 0 0.832-0.026 1.658-0.079 2.477l0.006-0.112v579.669c0.001 0.089 0.001 0.194 0.001 0.298 0 11.202-4.191 21.425-11.091 29.186l0.039-0.045-184.96 201.771c-6.005 6.816-14.71 11.132-24.425 11.264h-371.564c-19.955-1.518-35.572-18.083-35.572-38.296 0-0.832 0.026-1.658 0.079-2.477l-0.006 0.112v-781.483c-0.046-0.707-0.073-1.533-0.073-2.366 0-20.212 15.616-36.777 35.442-38.288l0.13-0.008zM840.021 611.243h-180.181c-47.128 0-85.333 38.205-85.333 85.333v0 220.672h42.667v-220.672c0-23.564 19.103-42.667 42.667-42.667v0h180.181zM598.144 293.461h-172.331c-11.782 0-21.333 9.551-21.333 21.333v0c0 11.782 9.551 21.333 21.333 21.333v0h172.331c11.782 0 21.333-9.551 21.333-21.333v0c0-11.782-9.551-21.333-21.333-21.333v0zM511.957 207.275c-11.782 0-21.333 9.551-21.333 21.333v0 172.331c0 11.782 9.551 21.333 21.333 21.333v0c11.782 0 21.333-9.551 21.333-21.333v0-172.331c0-11.782-9.551-21.333-21.333-21.333v0z" />
<glyph unicode="&#xe904;" glyph-name="add" d="M810.667 426.667h-597.333c-11.782 0-21.333 9.551-21.333 21.333v0c0 11.782 9.551 21.333 21.333 21.333v0h597.333c11.782 0 21.333-9.551 21.333-21.333v0c0-11.782-9.551-21.333-21.333-21.333v0zM512 128c-11.782 0-21.333 9.551-21.333 21.333v0 597.333c0 11.782 9.551 21.333 21.333 21.333v0c11.782 0 21.333-9.551 21.333-21.333v0-597.333c0-11.782-9.551-21.333-21.333-21.333v0z" />
<glyph unicode="&#xe905;" glyph-name="adsorption-grid" d="M206.336 483.712c-11.782 0-21.333 9.551-21.333 21.333v0 60.032c0 11.782 9.551 21.333 21.333 21.333v0c11.782 0 21.333-9.551 21.333-21.333v0-60.032c0-11.782-9.551-21.333-21.333-21.333v0zM206.336 268.587c-11.782 0-21.333 9.551-21.333 21.333v0 117.675c0 11.782 9.551 21.333 21.333 21.333v0c11.782 0 21.333-9.551 21.333-21.333v0-117.675c0-11.782-9.551-21.333-21.333-21.333v0zM455.979 732.373h-60.032c-11.782 0-21.333 9.551-21.333 21.333v0c0 11.782 9.551 21.333 21.333 21.333v0h60.032c11.782 0 21.333-9.551 21.333-21.333v0c0-11.782-9.551-21.333-21.333-21.333v0zM681.984 732.373h-128.555c-11.782 0-21.333 9.551-21.333 21.333v0c0 11.782 9.551 21.333 21.333 21.333v0h128.555c11.782 0 21.333-9.551 21.333-21.333v0c0-11.782-9.551-21.333-21.333-21.333v0zM206.336 853.333c55.046 0 99.669-44.623 99.669-99.669s-44.623-99.669-99.669-99.669c-55.046 0-99.669 44.623-99.669 99.669v0c0.049 55.026 44.643 99.621 99.665 99.669h0.005zM206.336 696.661c31.482 0 57.003 25.521 57.003 57.003s-25.521 57.003-57.003 57.003c-31.482 0-57.003-25.521-57.003-57.003v0c0.024-31.472 25.531-56.978 57-57.003h0.002zM206.336 203.136c35.134 0 63.616-28.482 63.616-63.616s-28.482-63.616-63.616-63.616c-35.134 0-63.616 28.482-63.616 63.616v0c0.049 35.115 28.501 63.567 63.611 63.616h0.005zM206.336 118.571c11.57 0 20.949 9.379 20.949 20.949s-9.379 20.949-20.949 20.949c-11.57 0-20.949-9.379-20.949-20.949v0c0.024-11.56 9.389-20.925 20.947-20.949h0.002zM843.264 817.28c35.134 0 63.616-28.482 63.616-63.616s-28.482-63.616-63.616-63.616c-35.134 0-63.616 28.482-63.616 63.616v0c0.049 35.115 28.501 63.567 63.611 63.616h0.005zM843.264 732.715c11.57 0 20.949 9.379 20.949 20.949s-9.379 20.949-20.949 20.949c-11.57 0-20.949-9.379-20.949-20.949v0c0.024-11.56 9.389-20.925 20.947-20.949h0.002zM441.771 429.611h71.083c23.564 0 42.667-19.103 42.667-42.667v0-101.12c0.049-32.608 26.482-59.026 59.091-59.051h0.002c32.593 0.048 59.002 26.457 59.051 59.046v101.125c0 23.564 19.103 42.667 42.667 42.667v0h71.083c23.564 0 42.667-19.103 42.667-42.667v0-102.4c-0.146-118.823-96.431-215.108-215.239-215.253h-0.014c-118.841 0.121-215.15 96.416-215.296 215.239v102.414c0 0.001 0 0.001 0 0.002 0 23.414 18.86 42.423 42.217 42.664h0.023zM614.485 184.192c-56.166 0.049-101.687 45.555-101.76 101.71v101.127h-70.955v-102.4c0.121-95.283 77.343-172.49 172.62-172.587h0.009c95.268 0.121 172.465 77.319 172.587 172.575v102.412h-70.997v-101.035c-0.024-56.11-45.418-101.609-101.485-101.803h-0.019zM426.453 598.912h104.064c18.135-0.024 32.829-14.719 32.853-32.851v-44.845c-0.024-18.135-14.719-32.829-32.851-32.853h-104.066c-18.135 0.024-32.829 14.719-32.853 32.851v44.845c0.024 18.135 14.719 32.829 32.851 32.853h0.002zM520.747 556.245h-84.48v-25.216h84.48zM700.928 598.912h104.064c18.135-0.024 32.829-14.719 32.853-32.851v-44.845c-0.024-18.135-14.719-32.829-32.851-32.853h-104.066c-18.135 0.024-32.829 14.719-32.853 32.851v44.845c0.024 18.135 14.719 32.829 32.851 32.853h0.002zM795.221 556.245h-84.48v-25.216h84.48z" />
<glyph unicode="&#xe906;" glyph-name="alarm-1" d="M512 3.925c-0.043 0-0.094 0-0.145 0-112.098 0-214.343 42.188-291.723 111.552l0.412-0.363-73.557-73.472c-5.714-5.796-13.652-9.387-22.429-9.387-0.065 0-0.13 0-0.195 0.001h0.010c-0.020 0-0.044 0-0.068 0-8.827 0-16.816 3.588-22.587 9.386l-0.001 0.001c-5.762 5.799-9.323 13.79-9.323 22.613s3.561 16.815 9.325 22.615l74.195 74.195c-63.589 75.519-102.272 173.838-102.4 281.188v0.028c0.291 241.957 196.357 438.024 438.287 438.315h0.028c241.975-0.267 438.066-196.342 438.357-438.286v-0.029c-0.117-107.379-38.802-205.701-102.944-281.88l0.544 0.664 74.197-74.197c5.772-5.794 9.341-13.787 9.341-22.613s-3.569-16.819-9.342-22.614l0.001 0.001c-5.773-5.799-13.762-9.387-22.588-9.387-0.024 0-0.048 0-0.071 0h0.004c-0.039 0-0.085 0-0.131 0-8.793 0-16.748 3.59-22.479 9.384l-0.003 0.003-73.557 73.472c-76.933-68.965-179.115-111.144-291.148-111.189h-0.010zM512 649.003c-11.782 0-21.333-9.551-21.333-21.333v0-200.533l164.437-164.48c3.859-3.849 9.184-6.229 15.066-6.229 0.013 0 0.027 0 0.040 0h-0.002c5.88 0.001 11.204 2.381 15.062 6.23v0c3.849 3.859 6.229 9.184 6.229 15.066 0 0.013 0 0.027 0 0.040v-0.002c-0.001 5.88-2.381 11.204-6.23 15.062v0l-151.936 151.979v182.784c0 0.013 0 0.028 0 0.043 0 11.782-9.551 21.333-21.333 21.333 0 0 0 0 0 0v0zM921.941 676.139v0c-40.719 81.783-104.677 146.854-183.193 187.867l-2.322 1.104c22.262 16.735 50.353 26.821 80.797 26.88h0.014c0.113 0 0.248 0.001 0.382 0.001 36.674 0 69.861-14.926 93.819-39.034l0.007-0.007c24.031-24.234 38.88-57.604 38.88-94.443 0-31.202-10.653-59.915-28.52-82.702l0.22 0.292zM102.059 676.139v0c-17.646 22.495-28.299 51.209-28.299 82.41 0 36.839 14.85 70.209 38.89 94.452l-0.009-0.009c23.965 24.115 57.153 39.041 93.826 39.041 0.134 0 0.268 0 0.403-0.001h-0.021c0.101 0 0.221 0 0.341 0 30.353 0 58.346-10.1 80.803-27.123l-0.334 0.242c-80.853-42.112-144.825-107.184-184.456-186.535l-1.101-2.436z" />
<glyph unicode="&#xe907;" glyph-name="alarm" d="M903.253 596.096c-0.011 0-0.025 0-0.038 0-5.882 0-11.207 2.38-15.066 6.23v0c-3.859 3.86-6.246 9.193-6.246 15.083s2.387 11.222 6.246 15.083v0c22.509 22.411 36.438 53.423 36.438 87.689 0 0.102 0 0.203 0 0.305v-0.016c0 0.086 0 0.188 0 0.289 0 34.266-13.929 65.279-36.433 87.685l-0.004 0.004c-22.411 22.509-53.423 36.438-87.689 36.438-0.102 0-0.203 0-0.305 0h0.016c-0.086 0-0.188 0-0.289 0-34.266 0-65.279-13.929-87.685-36.433l-0.004-0.004c-3.86-3.859-9.193-6.246-15.083-6.246s-11.222 2.387-15.083 6.246v0c-3.859 3.86-6.246 9.193-6.246 15.083s2.387 11.222 6.246 15.083v0c30.074 30.231 71.704 48.939 117.705 48.939 0.17 0 0.339 0 0.508-0.001h-0.026c0.143 0 0.313 0.001 0.482 0.001 46 0 87.631-18.709 117.697-48.932l0.007-0.007c30.231-30.074 48.939-71.704 48.939-117.705 0-0.17 0-0.339-0.001-0.508v0.026c0-0.143 0.001-0.313 0.001-0.482 0-46-18.709-87.631-48.932-117.697l-0.007-0.007c-3.85-3.799-9.141-6.145-14.98-6.145-0.058 0-0.117 0-0.175 0.001h0.009zM120.789 596.096c-5.88 0.001-11.204 2.381-15.062 6.23v0c-30.256 30.072-48.982 71.714-48.982 117.729 0 0.161 0 0.322 0.001 0.482v-0.025c0 0.141-0.001 0.308-0.001 0.475 0 46.010 18.726 87.646 48.973 117.703l0.009 0.009c30.266 30.186 72.036 48.852 118.165 48.852s87.899-18.665 118.169-48.855l-0.004 0.004c3.859-3.86 6.246-9.193 6.246-15.083s-2.387-11.222-6.246-15.083v0c-3.86-3.859-9.193-6.246-15.083-6.246s-11.222 2.387-15.083 6.246v0c-22.541 22.478-53.647 36.377-88 36.377s-65.459-13.899-88.003-36.38l0.003 0.003c-22.534-22.415-36.48-53.445-36.48-87.732 0-0.102 0-0.204 0-0.306v0.016c0-0.073 0-0.16 0-0.247 0-34.287 13.946-65.317 36.475-87.726l0.005-0.005c3.859-3.86 6.246-9.193 6.246-15.083s-2.387-11.222-6.246-15.083v0c-3.862-3.874-9.203-6.271-15.104-6.272v0zM899.627 36.779c-0.011 0-0.025 0-0.038 0-5.882 0-11.207 2.38-15.066 6.23v0l-95.488 95.488c-3.859 3.86-6.246 9.193-6.246 15.083s2.387 11.222 6.246 15.083v0c3.86 3.859 9.193 6.246 15.083 6.246s11.222-2.387 15.083-6.246l95.531-95.488c3.872-3.862 6.268-9.203 6.268-15.104 0-11.782-9.551-21.333-21.333-21.333-0.013 0-0.027 0-0.040 0h0.002zM124.416 36.779c-0.011 0-0.025 0-0.038 0-5.882 0-11.207 2.38-15.066 6.23v0c-3.859 3.86-6.246 9.193-6.246 15.083s2.387 11.222 6.246 15.083l95.531 95.531c3.86 3.859 9.193 6.246 15.083 6.246s11.222-2.387 15.083-6.246v0c3.859-3.86 6.246-9.193 6.246-15.083s-2.387-11.222-6.246-15.083l-95.488-95.531c-3.859-3.849-9.184-6.229-15.066-6.229-0.013 0-0.027 0-0.040 0h0.002zM512 863.787c236.207 0 427.691-191.484 427.691-427.691s-191.484-427.691-427.691-427.691c-236.207 0-427.691 191.484-427.691 427.691v0c0.291 236.090 191.601 427.4 427.663 427.691h0.027zM512 51.072c212.643 0 385.024 172.381 385.024 385.024s-172.381 385.024-385.024 385.024c-212.643 0-385.024-172.381-385.024-385.024v0c0.243-212.545 172.479-384.781 385.001-385.024h0.023zM670.251 256.512c-0.011 0-0.025 0-0.038 0-5.882 0-11.207 2.38-15.066 6.23v0l-164.48 164.48v200.533c0 11.782 9.551 21.333 21.333 21.333v0c11.782 0 21.333-9.551 21.333-21.333v0-182.741l151.979-151.979c3.859-3.86 6.246-9.193 6.246-15.083s-2.387-11.222-6.246-15.083v0c-3.841-3.895-9.164-6.32-15.054-6.357h-0.007z" />
<glyph unicode="&#xe908;" glyph-name="align-bottom" d="M377.728 213.376v624.469c0.049 36.081 29.285 65.317 65.361 65.365h137.776c36.081-0.049 65.317-29.285 65.365-65.361v-624.474c-0.049-36.081-29.285-65.317-65.361-65.365h-137.776c-36.081 0.049-65.317 29.285-65.365 65.361v0.005zM603.563 837.845c-0.024 12.526-10.172 22.674-22.696 22.699h-137.773c-12.526-0.024-22.674-10.172-22.699-22.696v-624.471c0.024-12.526 10.172-22.674 22.696-22.699h137.773c12.526 0.024 22.674 10.172 22.699 22.696v0.002zM923.435-7.168h-822.912c-11.782 0-21.333 9.551-21.333 21.333v0c0 11.782 9.551 21.333 21.333 21.333v0h822.912c11.782 0 21.333-9.551 21.333-21.333v0c0-11.782-9.551-21.333-21.333-21.333v0z" />
<glyph unicode="&#xe909;" glyph-name="align-horizontal-center" d="M646.229 760.235v-624.469c-0.049-36.081-29.285-65.317-65.361-65.365h-137.776c-36.081 0.049-65.317 29.285-65.365 65.361v624.474c0.049 36.081 29.285 65.317 65.361 65.365h137.776c36.081-0.049 65.317-29.285 65.365-65.361v-0.005zM420.395 135.765c0.024-12.526 10.172-22.674 22.696-22.699h137.773c12.526 0.024 22.674 10.172 22.699 22.696v624.471c-0.024 12.526-10.172 22.674-22.696 22.699h-137.773c-12.526-0.024-22.674-10.172-22.699-22.696v-0.002zM603.435 448c0 11.782 9.551 21.333 21.333 21.333v0h298.667c11.782 0 21.333-9.551 21.333-21.333v0c0-11.782-9.551-21.333-21.333-21.333v0h-298.667c-11.782 0-21.333 9.551-21.333 21.333v0zM79.061 448c0 11.782 9.551 21.333 21.333 21.333v0h298.667c11.782 0 21.333-9.551 21.333-21.333v0c0-11.782-9.551-21.333-21.333-21.333v0h-298.667c-11.782 0-21.333 9.551-21.333 21.333v0z" />
<glyph unicode="&#xe90a;" glyph-name="align-horizontal-space" d="M377.771 135.765v624.469c0.049 36.081 29.285 65.317 65.361 65.365h137.776c36.081-0.049 65.317-29.285 65.365-65.361v-624.474c-0.049-36.081-29.285-65.317-65.361-65.365h-137.776c-36.081 0.049-65.317 29.285-65.365 65.361v0.005zM603.605 760.235c-0.024 12.526-10.172 22.674-22.696 22.699h-137.773c-12.526-0.024-22.674-10.172-22.699-22.696v-624.471c0.024-12.526 10.172-22.674 22.696-22.699h137.773c12.526 0.024 22.674 10.172 22.699 22.696v0.002zM114.048 15.189c-11.782 0-21.333 9.551-21.333 21.333v0 822.912c0 11.782 9.551 21.333 21.333 21.333v0c11.782 0 21.333-9.551 21.333-21.333v0-822.912c0-11.782-9.551-21.333-21.333-21.333v0zM909.952 15.189c-11.782 0-21.333 9.551-21.333 21.333v0 822.912c0 11.782 9.551 21.333 21.333 21.333v0c11.782 0 21.333-9.551 21.333-21.333v0-822.912c0-11.782-9.551-21.333-21.333-21.333v0z" />
<glyph unicode="&#xe90b;" glyph-name="align-left" d="M277.376 582.272h624.469c36.081-0.049 65.317-29.285 65.365-65.361v-137.776c-0.049-36.081-29.285-65.317-65.361-65.365h-624.474c-36.081 0.049-65.317 29.285-65.365 65.361v137.776c0.049 36.081 29.285 65.317 65.361 65.365h0.005zM901.845 356.437c12.526 0.024 22.674 10.172 22.699 22.696v137.773c-0.024 12.526-10.172 22.674-22.696 22.699h-624.471c-12.526-0.024-22.674-10.172-22.699-22.696v-137.773c0.024-12.526 10.172-22.674 22.696-22.699h0.002zM78.123 15.232c-11.782 0-21.333 9.551-21.333 21.333v0 822.912c0 11.782 9.551 21.333 21.333 21.333v0c11.782 0 21.333-9.551 21.333-21.333v0-822.912c0-11.782-9.551-21.333-21.333-21.333v0z" />
<glyph unicode="&#xe90c;" glyph-name="align-right" d="M746.624 313.771h-624.469c-36.081 0.049-65.317 29.285-65.365 65.361v137.776c0.049 36.081 29.285 65.317 65.361 65.365h624.474c36.081-0.049 65.317-29.285 65.365-65.361v-137.776c-0.049-36.081-29.285-65.317-65.361-65.365h-0.005zM122.155 539.605c-12.526-0.024-22.674-10.172-22.699-22.696v-137.773c0.024-12.526 10.172-22.674 22.696-22.699h624.471c12.526 0.024 22.674 10.172 22.699 22.696v137.773c-0.024 12.526-10.172 22.674-22.696 22.699h-0.002zM945.835 15.232c-11.782 0-21.333 9.551-21.333 21.333v0 822.912c0 11.782 9.551 21.333 21.333 21.333v0c11.782 0 21.333-9.551 21.333-21.333v0-822.912c0-11.782-9.551-21.333-21.333-21.333v0z" />
<glyph unicode="&#xe90d;" glyph-name="align-top" d="M646.229 682.667v-624.469c-0.049-36.081-29.285-65.317-65.361-65.365h-137.776c-36.081 0.049-65.317 29.285-65.365 65.361v624.474c0.049 36.081 29.285 65.317 65.361 65.365h137.776c36.081-0.049 65.317-29.285 65.365-65.361v-0.005zM420.395 58.197c0.024-12.526 10.172-22.674 22.696-22.699h137.773c12.526 0.024 22.674 10.172 22.699 22.696v624.471c-0.024 12.526-10.172 22.674-22.696 22.699h-137.773c-12.526-0.024-22.674-10.172-22.699-22.696v-0.002zM923.435 860.544h-822.912c-11.782 0-21.333 9.551-21.333 21.333v0c0 11.782 9.551 21.333 21.333 21.333v0h822.912c11.782 0 21.333-9.551 21.333-21.333v0c0-11.782-9.551-21.333-21.333-21.333v0z" />
<glyph unicode="&#xe90e;" glyph-name="align-vertical-center" d="M199.765 582.272h624.469c36.081-0.049 65.317-29.285 65.365-65.361v-137.776c-0.049-36.081-29.285-65.317-65.361-65.365h-624.474c-36.081 0.049-65.317 29.285-65.365 65.361v137.776c0.049 36.081 29.285 65.317 65.361 65.365h0.005zM824.235 356.437c12.526 0.024 22.674 10.172 22.699 22.696v137.773c-0.024 12.526-10.172 22.674-22.696 22.699h-624.471c-12.526-0.024-22.674-10.172-22.699-22.696v-137.773c0.024-12.526 10.172-22.674 22.696-22.699h0.002zM512 539.477c-11.782 0-21.333 9.551-21.333 21.333v0 298.667c0 11.782 9.551 21.333 21.333 21.333v0c11.782 0 21.333-9.551 21.333-21.333v0-298.667c0-11.782-9.551-21.333-21.333-21.333v0zM512 15.104c-11.782 0-21.333 9.551-21.333 21.333v0 298.667c0 11.782 9.551 21.333 21.333 21.333v0c11.782 0 21.333-9.551 21.333-21.333v0-298.667c0-11.782-9.551-21.333-21.333-21.333v0z" />
<glyph unicode="&#xe90f;" glyph-name="align-vertical-space" d="M199.765 582.229h624.469c36.081-0.049 65.317-29.285 65.365-65.361v-137.776c-0.049-36.081-29.285-65.317-65.361-65.365h-624.474c-36.081 0.049-65.317 29.285-65.365 65.361v137.776c0.049 36.081 29.285 65.317 65.361 65.365h0.005zM824.235 356.395c12.526 0.024 22.674 10.172 22.699 22.696v137.773c-0.024 12.526-10.172 22.674-22.696 22.699h-624.471c-12.526-0.024-22.674-10.172-22.699-22.696v-137.773c0.024-12.526 10.172-22.674 22.696-22.699h0.002zM79.232 845.952c0 11.782 9.551 21.333 21.333 21.333v0h822.912c11.782 0 21.333-9.551 21.333-21.333v0c0-11.782-9.551-21.333-21.333-21.333v0h-822.912c-11.782 0-21.333 9.551-21.333 21.333v0zM79.232 50.048c0 11.782 9.551 21.333 21.333 21.333v0h822.912c11.782 0 21.333-9.551 21.333-21.333v0c0-11.782-9.551-21.333-21.333-21.333v0h-822.912c-11.782 0-21.333 9.551-21.333 21.333v0z" />
<glyph unicode="&#xe910;" glyph-name="alpha" d="M511.829-25.6q-23.765 0-47.701 2.347c-111.792 11.816-210.312 61.002-284.532 134.644l0.031-0.030c-74.662 73.338-125.022 171.197-138.024 280.517l-0.216 2.235c-1.941 16.125-3.049 34.798-3.049 53.73 0 53.075 8.705 104.116 24.764 151.775l-0.979-3.35c21.701 64.892 54.833 120.766 97.396 167.971l-0.372-0.419c87.126 96.978 212.903 157.736 352.873 157.867h0.023c0.386 0.001 0.843 0.002 1.301 0.002 130.372 0 248.36-53.028 333.57-138.691l0.020-0.020c85.684-85.23 138.711-203.218 138.711-333.59 0-0.457-0.001-0.914-0.002-1.372v0.071-1.536l-2.304-32.213c-4.082-52.321-31.379-97.529-71.485-125.764l-0.537-0.358c-23.947-17.060-53.799-27.276-86.037-27.276-14.862 0-29.216 2.171-42.764 6.213l1.057-0.271c-31.39 9.074-57.313 28.57-74.403 54.419l-0.306 0.493c-18.095 29.672-28.809 65.565-28.809 103.961 0 2.993 0.065 5.97 0.194 8.931l-0.015-0.422v238.763c0 11.782 9.551 21.333 21.333 21.333v0c11.782 0 21.333-9.551 21.333-21.333v0-239.189c0-69.504 24.533-112.085 72.875-126.507 8.874-2.702 19.073-4.258 29.635-4.258 23.167 0 44.586 7.485 61.971 20.168l-0.3-0.208c30.279 21.281 50.638 54.915 53.731 93.421l0.029 0.446 2.261 31.445c-0.703 237.56-193.312 429.9-430.908 430.165h-0.026c-127.367-0.089-241.813-55.333-320.76-143.136l-0.349-0.395c-38.387-42.569-68.532-93.407-87.396-149.431l-0.881-3.017c-13.701-40.31-21.609-86.743-21.609-135.023 0-17.295 1.015-34.353 2.988-51.117l-0.195 2.033c12.053-101.431 57.87-190.398 125.716-257.003l0.065-0.064c67.448-66.975 157.026-111.743 256.805-122.376l1.883-0.163c13.1-1.412 28.296-2.217 43.68-2.217 73.536 0 142.776 18.395 203.368 50.836l-2.313-1.131c2.893 1.563 6.332 2.482 9.986 2.482 8.132 0 15.201-4.55 18.801-11.243l0.056-0.114c1.563-2.893 2.482-6.332 2.482-9.986 0-8.132-4.55-15.201-11.243-18.801l-0.114-0.056c-63.673-34.136-139.302-54.19-219.614-54.19-0.597 0-1.194 0.001-1.791 0.003h0.093zM490.624 701.525c128.213 0 232.149-103.937 232.149-232.149s-103.937-232.149-232.149-232.149c-128.213 0-232.149 103.937-232.149 232.149v0c0.146 128.154 103.995 232.004 232.135 232.149h0.014zM490.624 279.851c104.648 0 189.483 84.834 189.483 189.483s-84.834 189.483-189.483 189.483c-104.633 0-189.458-84.81-189.483-189.438v-0.002c0.097-104.618 84.868-189.404 189.471-189.525h0.012z" />
<glyph unicode="&#xe911;" glyph-name="arrow-1-1" d="M522.155 33.963l-114.432 286.763c-2.388 5.855-6.945 10.412-12.647 12.744l-0.153 0.056-286.763 114.347c-32.357 12.999-54.786 44.113-54.786 80.467 0 0.211 0.001 0.422 0.002 0.632v-0.032c0.026 36.555 22.772 67.791 54.88 80.352l0.587 0.202 753.451 290.987c9.368 3.775 20.23 5.981 31.602 6.016h0.014c29.641-0.127 55.765-15.072 71.36-37.806l0.192-0.296c9.568-13.598 15.291-30.502 15.291-48.742 0-11.349-2.215-22.18-6.237-32.085l0.205 0.571-290.987-753.493c-12.784-32.715-44.057-55.468-80.644-55.468-0.149 0-0.297 0-0.446 0.001h0.023c-0.040 0-0.086 0-0.133 0-36.329 0-67.419 22.433-80.173 54.203l-0.206 0.581z" />
<glyph unicode="&#xe912;" glyph-name="arrow-1" d="M894.080 896c26.003-0.128 48.915-13.245 62.594-33.191l0.168-0.26c8.355-11.921 13.351-26.729 13.351-42.703 0-9.958-1.942-19.463-5.467-28.157l0.18 0.502-290.987-753.493c-11.194-28.782-38.681-48.811-70.845-48.811-0.113 0-0.227 0-0.34 0.001h0.018c-0.273-0.004-0.596-0.006-0.919-0.006-31.707 0-58.811 19.707-69.732 47.54l-0.176 0.509-114.389 286.763c-3.488 8.598-10.176 15.286-18.549 18.693l-0.225 0.081-286.763 114.347c-28.354 11.415-48.004 38.694-48.004 70.561 0 0.273 0.001 0.546 0.004 0.819v-0.042c0.070 32.093 20.080 59.494 48.295 70.479l0.516 0.177 753.493 290.987c8.236 3.292 17.783 5.203 27.775 5.205h0.001zM602.752 32.512c0.167-0.003 0.364-0.005 0.561-0.005 14.016 0 25.984 8.765 30.723 21.113l0.076 0.225 290.987 753.493c1.521 3.629 2.404 7.846 2.404 12.27 0 6.971-2.194 13.429-5.929 18.723l0.069-0.102c-6.060 8.959-16.137 14.804-27.586 14.933h-0.020c-4.46-0.023-8.709-0.899-12.602-2.471l0.229 0.082-753.493-290.987c-12.57-4.802-21.335-16.761-21.335-30.768 0-0.118 0.001-0.236 0.002-0.354v0.018c-0.004-0.192-0.006-0.419-0.006-0.646 0-14.016 8.766-25.985 21.114-30.723l0.225-0.076 286.763-114.347c19.536-7.932 34.734-23.131 42.483-42.156l0.184-0.511 114.389-286.72c4.811-12.379 16.63-20.993 30.462-20.993 0.106 0 0.211 0.001 0.317 0.002h-0.016z" />
<glyph unicode="&#xe913;" glyph-name="arrow-2" d="M418.773 328.704s6.229 9.728 0 15.957c-1.152 1.195-2.517-2.261-3.84-5.675s-2.731-6.4-4.267-5.845l-312.875 114.987c-21.533 8.675-38.417 25.1-47.484 45.738l-0.218 0.556c-4.531 10.142-7.169 21.98-7.169 34.433 0 11.558 2.273 22.586 6.396 32.66l-0.208-0.576c9.153 22.667 26.887 40.249 49.073 48.99l0.591 0.205 753.621 290.688c9.277 3.7 20.027 5.845 31.279 5.845 0.013 0 0.027 0 0.040 0h-0.002c24.701-3.527 46.025-15.837 61.11-33.609l0.116-0.141c6.059-5.973 0-19.072 0-27.563s6.144-3.285 0-9.301l-507.435-507.392c-1.865-1.728-4.371-2.788-7.124-2.788-0.196 0-0.39 0.005-0.583 0.016l0.027-0.001c-4.056 0.222-7.824 1.237-11.224 2.892l0.173-0.076zM598.016-10.325v0c-0.075 0-0.164 0-0.253 0-31.963 0-59.314 19.745-70.521 47.702l-0.181 0.511-114.347 286.72c-1.773 4.427-4.304 8.204-7.465 11.348l-0.001 0.001c-3.874 3.862-6.271 9.203-6.272 15.104v0c0 0.011 0 0.025 0 0.038 0 5.882 2.38 11.207 6.23 15.066v0l507.392 507.392c3.859 3.849 9.184 6.229 15.066 6.229 0.028 0 0.057 0 0.085 0h-0.004c5.907-0.013 11.248-2.425 15.103-6.313l0.001-0.001c13.667-13.801 22.111-32.796 22.111-53.762 0-9.817-1.851-19.202-5.224-27.824l0.179 0.52-148.053-384.256-142.635-369.323c-7.847-19.961-23.243-35.509-42.581-43.378l-0.512-0.184c-8.312-3.476-17.967-5.524-28.092-5.589h-0.026zM448.384 348.928c1.312-2.322 2.659-5.13 3.83-8.028l0.181-0.506 1.195-3.029 113.109-283.648c5.004-12.593 17.085-21.334 31.208-21.334 0.038 0 0.077 0 0.115 0h-0.006c4.444 0.009 8.681 0.886 12.553 2.47l-0.223-0.081c8.746 3.552 15.528 10.404 18.907 18.971l0.080 0.229 142.635 369.365 148.053 384.299c1.435 3.602 2.267 7.777 2.267 12.146 0 1.057-0.049 2.102-0.144 3.133l0.010-0.132z" />
<glyph unicode="&#xe914;" glyph-name="arrow-down-1" d="M933.461 853.333h-848.128c-11.782 0-21.333 9.551-21.333 21.333v0c0 11.782 9.551 21.333 21.333 21.333v0h848.128c11.782 0 21.333-9.551 21.333-21.333v0c0-11.782-9.551-21.333-21.333-21.333v0zM509.397 7.040c-5.924 0.050-11.265 2.506-15.1 6.438l-0.004 0.004c-3.859 3.86-6.246 9.193-6.246 15.083s2.387 11.222 6.246 15.083v0l155.904 155.605c3.845 3.771 9.117 6.098 14.933 6.098s11.088-2.327 14.937-6.102l-0.003 0.003c3.872-3.862 6.267-9.203 6.267-15.104s-2.396-11.242-6.267-15.104v0l-155.563-155.563c-3.839-3.936-9.18-6.393-15.095-6.443h-0.009zM509.397 7.040c-5.877 0.086-11.166 2.536-14.972 6.438l-0.004 0.004-155.904 155.563c-3.859 3.86-6.246 9.193-6.246 15.083s2.387 11.222 6.246 15.083v0c3.86 3.859 9.193 6.246 15.083 6.246s11.222-2.387 15.083-6.246v0l155.605-155.861c3.872-3.862 6.268-9.203 6.268-15.104 0-11.782-9.551-21.333-21.333-21.333-0.013 0-0.027 0-0.040 0h0.002zM509.397 33.877c-11.782 0-21.333 9.551-21.333 21.333v0 657.323c0 11.782 9.551 21.333 21.333 21.333v0c11.782 0 21.333-9.551 21.333-21.333v0-657.323c0-11.782-9.551-21.333-21.333-21.333v0z" />
<glyph unicode="&#xe915;" glyph-name="arrow-down" d="M478.293 219.264c0.086 5.877 2.536 11.166 6.438 14.972l0.004 0.004 155.563 155.904c3.86 3.859 9.193 6.246 15.083 6.246s11.222-2.387 15.083-6.246v0c3.859-3.86 6.246-9.193 6.246-15.083s-2.387-11.222-6.246-15.083v0l-155.861-155.605c-3.862-3.872-9.203-6.268-15.104-6.268-11.782 0-21.333 9.551-21.333 21.333 0 0.013 0 0.027 0 0.040v-0.002zM322.517 375.040c0.050 5.924 2.506 11.265 6.438 15.1l0.004 0.004c3.86 3.859 9.193 6.246 15.083 6.246s11.222-2.387 15.083-6.246v0l155.605-155.904c3.771-3.845 6.098-9.117 6.098-14.933s-2.327-11.088-6.102-14.937l0.003 0.003c-3.862-3.872-9.203-6.267-15.104-6.267s-11.242 2.396-15.104 6.267v0l-155.563 155.563c-3.936 3.839-6.393 9.18-6.443 15.095v0.009zM478.293 246.101v460.416c0 11.782 9.551 21.333 21.333 21.333v0c11.782 0 21.333-9.551 21.333-21.333v0-460.373c0-11.782-9.551-21.333-21.333-21.333v0c0 0 0 0 0 0-11.767 0-21.309 9.527-21.333 21.288v0.002z" />
<glyph unicode="&#xe916;" glyph-name="arrow-left-1" d="M910.293 26.539v848.128c0 11.782 9.551 21.333 21.333 21.333v0c11.782 0 21.333-9.551 21.333-21.333v0-848.128c0-11.782-9.551-21.333-21.333-21.333v0c-11.782 0-21.333 9.551-21.333 21.333v0zM64 450.603c0.050 5.924 2.506 11.265 6.438 15.1l0.004 0.004c3.86 3.859 9.193 6.246 15.083 6.246s11.222-2.387 15.083-6.246v0l155.605-155.904c3.771-3.845 6.098-9.117 6.098-14.933s-2.327-11.088-6.102-14.937l0.003 0.003c-3.862-3.872-9.203-6.267-15.104-6.267s-11.242 2.396-15.104 6.267v0l-155.563 155.563c-3.936 3.839-6.393 9.18-6.443 15.095v0.009zM64 450.603c0.086 5.877 2.536 11.166 6.438 14.972l0.004 0.004 155.563 155.904c3.86 3.859 9.193 6.246 15.083 6.246s11.222-2.387 15.083-6.246v0c3.859-3.86 6.246-9.193 6.246-15.083s-2.387-11.222-6.246-15.083v0l-155.861-155.605c-3.862-3.872-9.203-6.268-15.104-6.268-11.782 0-21.333 9.551-21.333 21.333 0 0.013 0 0.027 0 0.040v-0.002zM90.837 450.603c0 11.782 9.551 21.333 21.333 21.333v0h657.323c11.782 0 21.333-9.551 21.333-21.333v0c0-11.782-9.551-21.333-21.333-21.333v0h-657.323c-11.782 0-21.333 9.551-21.333 21.333v0z" />
<glyph unicode="&#xe917;" glyph-name="arrow-left-up" d="M562.745 650.213c4.154-4.224 6.193-9.738 6.125-15.23v-0.006c-0.001-5.459-2.084-10.917-6.248-15.082s-9.623-6.248-15.082-6.248v0l-220.27 0.211c-5.385 0.052-10.759 2.135-14.872 6.247s-6.195 9.486-6.247 14.876v-0.005c-0.007 5.469 2.076 10.94 6.248 15.112s9.643 6.255 15.111 6.248h220c5.498 0.069 11.012-1.971 15.229-6.118l0.007-0.007zM342.444 650.213c4.095-4.217 6.103-9.689 6.034-15.139v-0.006l0.241-220.24c-0.001-5.459-2.084-10.917-6.248-15.082s-9.623-6.248-15.082-6.248v0c-5.459 0.001-10.917 2.084-15.082 6.248s-6.248 9.623-6.248 15.082v0l0.181 220.24c-0.007 5.469 2.076 10.94 6.248 15.112 8.331 8.331 21.839 8.331 30.17 0 0.009-0.009 0.019-0.019 0.028-0.028l-0.001 0.001zM361.451 631.206l325.533-325.533c8.331-8.331 8.331-21.839 0-30.17v0c-8.331-8.331-21.839-8.331-30.17 0v0l-325.533 325.533c-8.331 8.331-8.331 21.839 0 30.17v0c8.331 8.331 21.839 8.331 30.17 0v0z" />
<glyph unicode="&#xe918;" glyph-name="arrow-left" d="M256 484.181c5.877-0.086 11.166-2.536 14.972-6.438l0.004-0.004 155.904-155.563c3.859-3.86 6.246-9.193 6.246-15.083s-2.387-11.222-6.246-15.083v0c-3.86-3.859-9.193-6.246-15.083-6.246s-11.222 2.387-15.083 6.246v0l-155.605 155.861c-3.872 3.862-6.268 9.203-6.268 15.104 0 11.782 9.551 21.333 21.333 21.333 0.013 0 0.027 0 0.040 0h-0.002zM411.776 639.957c5.924-0.050 11.265-2.506 15.1-6.438l0.004-0.004c3.859-3.86 6.246-9.193 6.246-15.083s-2.387-11.222-6.246-15.083v0l-155.904-155.605c-3.845-3.771-9.117-6.098-14.933-6.098s-11.088 2.327-14.937 6.102l0.003-0.003c-3.872 3.862-6.267 9.203-6.267 15.104s2.396 11.242 6.267 15.104v0l155.563 155.563c3.839 3.936 9.18 6.393 15.095 6.443h0.009zM282.837 484.181h460.416c11.782 0 21.333-9.551 21.333-21.333v0c0-11.782-9.551-21.333-21.333-21.333v0h-460.373c-11.782 0-21.333 9.551-21.333 21.333v0c0 0 0 0 0 0 0 11.767 9.527 21.309 21.288 21.333h0.002z" />
<glyph unicode="&#xe919;" glyph-name="arrow-right-1" d="M64 26.539v848.128c0 11.782 9.551 21.333 21.333 21.333v0c11.782 0 21.333-9.551 21.333-21.333v0-848.128c0-11.782-9.551-21.333-21.333-21.333v0c-11.782 0-21.333 9.551-21.333 21.333v0zM754.517 294.869c0.086 5.877 2.536 11.166 6.438 14.972l0.004 0.004 155.563 155.904c3.86 3.859 9.193 6.246 15.083 6.246s11.222-2.387 15.083-6.246v0c3.859-3.86 6.246-9.193 6.246-15.083s-2.387-11.222-6.246-15.083v0l-155.861-155.605c-3.862-3.872-9.203-6.268-15.104-6.268-11.782 0-21.333 9.551-21.333 21.333 0 0.013 0 0.027 0 0.040v-0.002zM754.517 606.421c0.050 5.924 2.506 11.265 6.438 15.1l0.004 0.004c3.86 3.859 9.193 6.246 15.083 6.246s11.222-2.387 15.083-6.246v0l155.605-155.904c3.771-3.845 6.098-9.117 6.098-14.933s-2.327-11.088-6.102-14.937l0.003 0.003c-3.862-3.872-9.203-6.267-15.104-6.267s-11.242 2.396-15.104 6.267v0l-155.563 155.563c-3.936 3.839-6.393 9.18-6.443 15.095v0.009zM226.091 450.645c0 11.782 9.551 21.333 21.333 21.333v0h657.323c11.782 0 21.333-9.551 21.333-21.333v0c0-11.782-9.551-21.333-21.333-21.333v0h-657.323c-11.782 0-21.333 9.551-21.333 21.333v0z" />
<glyph unicode="&#xe91a;" glyph-name="arrow-right-up" d="M686.991 620.073c-4.217-4.095-9.689-6.103-15.139-6.034h-0.006l-220.24-0.241c-5.459 0.001-10.917 2.084-15.082 6.248s-6.248 9.623-6.248 15.082v0c0.001 5.459 2.084 10.917 6.248 15.082s9.623 6.248 15.082 6.248v0l220.24-0.181c5.469 0.007 10.94-2.076 15.112-6.248 8.331-8.331 8.331-21.839 0-30.17-0.009-0.009-0.019-0.019-0.028-0.028l0.001 0.001zM686.991 399.772c-4.224-4.154-9.738-6.193-15.23-6.125h-0.006c-5.459 0.001-10.917 2.084-15.082 6.248s-6.248 9.623-6.248 15.082v0l0.211 220.27c0.052 5.385 2.135 10.759 6.247 14.872s9.486 6.195 14.876 6.247h-0.005c5.469 0.007 10.94-2.076 15.112-6.248s6.255-9.643 6.248-15.111v-220c0.069-5.498-1.971-11.012-6.118-15.229l-0.007-0.007zM667.984 601.066l-325.533-325.533c-8.331-8.331-21.839-8.331-30.17 0v0c-8.331 8.331-8.331 21.839 0 30.17v0l325.533 325.533c8.331 8.331 21.839 8.331 30.17 0v0c8.331-8.331 8.331-21.839 0-30.17v0z" />
<glyph unicode="&#xe91b;" glyph-name="arrow-right" d="M587.477 285.781c-5.924 0.050-11.265 2.506-15.1 6.438l-0.004 0.004c-3.859 3.86-6.246 9.193-6.246 15.083s2.387 11.222 6.246 15.083v0l155.904 155.605c3.845 3.771 9.117 6.098 14.933 6.098s11.088-2.327 14.937-6.102l-0.003 0.003c3.872-3.862 6.267-9.203 6.267-15.104s-2.396-11.242-6.267-15.104v0l-155.563-155.563c-3.839-3.936-9.18-6.393-15.095-6.443h-0.009zM743.253 441.557c-5.877 0.086-11.166 2.536-14.972 6.438l-0.004 0.004-155.904 155.563c-3.859 3.86-6.246 9.193-6.246 15.083s2.387 11.222 6.246 15.083v0c3.86 3.859 9.193 6.246 15.083 6.246s11.222-2.387 15.083-6.246v0l155.605-155.861c3.872-3.862 6.268-9.203 6.268-15.104 0-11.782-9.551-21.333-21.333-21.333-0.013 0-0.027 0-0.040 0h0.002zM716.373 441.557h-460.373c-11.782 0-21.333 9.551-21.333 21.333v0c0 11.782 9.551 21.333 21.333 21.333v0h460.373c11.782 0 21.333-9.551 21.333-21.333v0c0-11.782-9.551-21.333-21.333-21.333v0z" />
<glyph unicode="&#xe91c;" glyph-name="arrow-up-1" d="M933.461 7.040h-848.128c-11.782 0-21.333 9.551-21.333 21.333v0c0 11.782 9.551 21.333 21.333 21.333v0h848.128c11.782 0 21.333-9.551 21.333-21.333v0c0-11.782-9.551-21.333-21.333-21.333v0zM665.173 697.557c-5.877 0.086-11.166 2.536-14.972 6.438l-0.004 0.004-155.904 155.563c-3.859 3.86-6.246 9.193-6.246 15.083s2.387 11.222 6.246 15.083v0c3.86 3.859 9.193 6.246 15.083 6.246s11.222-2.387 15.083-6.246v0l155.605-155.861c3.872-3.862 6.268-9.203 6.268-15.104 0-11.782-9.551-21.333-21.333-21.333-0.013 0-0.027 0-0.040 0h0.002zM353.621 697.557c-5.924 0.050-11.265 2.506-15.1 6.438l-0.004 0.004c-3.859 3.86-6.246 9.193-6.246 15.083s2.387 11.222 6.246 15.083v0l155.904 155.605c3.845 3.771 9.117 6.098 14.933 6.098s11.088-2.327 14.937-6.102l-0.003 0.003c3.872-3.862 6.267-9.203 6.267-15.104s-2.396-11.242-6.267-15.104v0l-155.563-155.563c-3.839-3.936-9.18-6.393-15.095-6.443h-0.009zM509.397 169.131c-11.782 0-21.333 9.551-21.333 21.333v0 657.323c0 11.782 9.551 21.333 21.333 21.333v0c11.782 0 21.333-9.551 21.333-21.333v0-657.323c0-11.782-9.551-21.333-21.333-21.333v0z" />
<glyph unicode="&#xe91d;" glyph-name="arrow-up" d="M676.736 550.699c-0.050-5.924-2.506-11.265-6.438-15.1l-0.004-0.004c-3.86-3.859-9.193-6.246-15.083-6.246s-11.222 2.387-15.083 6.246v0l-155.605 155.904c-3.771 3.845-6.098 9.117-6.098 14.933s2.327 11.088 6.102 14.937l-0.003-0.003c3.862 3.872 9.203 6.267 15.104 6.267s11.242-2.396 15.104-6.267v0l155.563-155.563c3.936-3.839 6.393-9.18 6.443-15.095v-0.009zM520.96 706.475c-0.086-5.877-2.536-11.166-6.438-14.972l-0.004-0.004-155.563-155.904c-3.86-3.859-9.193-6.246-15.083-6.246s-11.222 2.387-15.083 6.246v0c-3.859 3.86-6.246 9.193-6.246 15.083s2.387 11.222 6.246 15.083v0l155.861 155.605c3.862 3.872 9.203 6.268 15.104 6.268 11.782 0 21.333-9.551 21.333-21.333 0-0.013 0-0.027 0-0.040v0.002zM520.96 679.637v-460.416c0-11.782-9.551-21.333-21.333-21.333v0c-11.782 0-21.333 9.551-21.333 21.333v0 460.373c0 11.782 9.551 21.333 21.333 21.333v0c0 0 0 0 0 0 11.767 0 21.309-9.527 21.333-21.288v-0.002z" />
<glyph unicode="&#xe91e;" glyph-name="arrow" d="M420.352 329.728c-5.901 0.001-11.242 2.398-15.103 6.271l-0.001 0.001c-3.124 3.126-6.872 5.628-11.042 7.303l-0.222 0.079-286.805 114.389c-19.935 8.058-35.389 23.679-43.042 43.213l-0.179 0.52c-3.189 8.061-5.038 17.399-5.038 27.168 0 11.289 2.469 22.002 6.896 31.628l-0.194-0.471c8.355 18.483 23.362 32.727 41.894 39.888l0.517 0.176 753.237 290.944c8.149 3.252 17.593 5.139 27.477 5.139s19.329-1.886 27.992-5.318l-0.515 0.18c10.397-4.062 19.266-9.957 26.62-17.361l0.004-0.004c3.859-3.86 6.246-9.193 6.246-15.083s-2.387-11.222-6.246-15.083v0c-3.86-3.859-9.193-6.246-15.083-6.246s-11.222 2.387-15.083 6.246v0c-3.243 3.259-7.152 5.852-11.506 7.559l-0.227 0.078c-3.581 1.429-7.731 2.258-12.075 2.258s-8.494-0.829-12.301-2.337l0.226 0.079-753.365-290.987c-8.429-3.218-15.074-9.502-18.688-17.455l-0.085-0.209c-1.851-4.019-2.93-8.72-2.93-13.673 0-4.288 0.809-8.388 2.283-12.154l-0.078 0.227c3.472-8.849 10.305-15.738 18.888-19.204l0.227-0.081 286.805-114.389c9.981-4.019 18.498-9.729 25.598-16.851l0.002-0.002c3.859-3.86 6.246-9.193 6.246-15.083s-2.387-11.222-6.246-15.083v0c-3.862-3.874-9.203-6.271-15.104-6.272v0zM598.016-10.325v0c-0.075 0-0.164 0-0.253 0-31.963 0-59.314 19.745-70.521 47.702l-0.181 0.511-114.347 286.72c-1.768 4.443-4.3 8.235-7.466 11.391l-0.001 0.001c-3.874 3.862-6.271 9.203-6.272 15.104v0c0 0.011 0 0.025 0 0.038 0 5.882 2.38 11.207 6.23 15.066v0l507.392 507.392c3.859 3.849 9.184 6.229 15.066 6.229 0.028 0 0.057 0 0.085 0h-0.004c5.907-0.013 11.248-2.425 15.103-6.313l0.001-0.001c13.667-13.801 22.111-32.796 22.111-53.762 0-9.817-1.851-19.202-5.224-27.824l0.179 0.52-148.053-384.256-142.635-369.323c-7.847-19.961-23.243-35.509-42.581-43.378l-0.512-0.184c-8.309-3.49-17.962-5.552-28.086-5.632h-0.031zM448.384 348.928c1.312-2.322 2.659-5.13 3.83-8.028l0.181-0.506 114.304-286.677c5.004-12.593 17.085-21.334 31.208-21.334 0.038 0 0.077 0 0.115 0h-0.006c4.444 0.009 8.681 0.886 12.553 2.47l-0.223-0.081c8.746 3.552 15.528 10.404 18.907 18.971l0.080 0.229 142.635 369.365 148.053 384.299c1.435 3.602 2.267 7.777 2.267 12.146 0 1.057-0.049 2.102-0.144 3.133l0.010-0.132z" />
<glyph unicode="&#xe91f;" glyph-name="back-off" d="M725.291 867.243c0.268 0.002 0.584 0.004 0.901 0.004 28.454 0 54.246-11.402 73.055-29.885l-0.015 0.015c15.585-15.282 25.328-36.472 25.6-59.938v-658.654c-2.699-50.332-44.169-90.122-94.933-90.122-1.501 0-2.993 0.035-4.477 0.104l0.21-0.008c-0.198-0.001-0.432-0.002-0.667-0.002-24.028 0-46.182 8.018-63.935 21.525l0.26-0.19-426.667 329.259c-19.663 14.685-32.79 37.185-34.755 62.81l-0.018 0.294c-0.107 1.589-0.167 3.444-0.167 5.313 0 23.639 9.714 45.010 25.369 60.337l0.015 0.014c1.323 1.365 3.243 3.328 436.267 337.621 17.524 13.42 39.752 21.504 63.869 21.504 0.031 0 0.062 0 0.093 0h-0.005zM725.291 71.424c1.249-0.105 2.703-0.166 4.171-0.166 27.265 0 49.685 20.741 52.344 47.306l0.018 0.22v658.517c-0.274 11.74-5.221 22.274-13.045 29.856l-0.011 0.011c-11.011 10.569-25.99 17.078-42.49 17.078-0.407 0-0.813-0.004-1.219-0.012l0.061 0.001c-0.185 0.002-0.403 0.003-0.622 0.003-14.163 0-27.228-4.697-37.724-12.619l0.159 0.115c-143.488-110.933-415.019-320.512-432.683-334.592-7.604-7.631-12.306-18.159-12.306-29.784 0-0.794 0.022-1.584 0.065-2.367l-0.005 0.109c1.2-13.276 8.068-24.741 18.135-32.083l0.127-0.088 426.667-329.259c10.288-7.657 23.245-12.259 37.277-12.259 0.455 0 0.909 0.005 1.362 0.014l-0.068-0.001zM220.715 28.757c-11.782 0-21.333 9.551-21.333 21.333v0 795.819c0 11.782 9.551 21.333 21.333 21.333v0c11.782 0 21.333-9.551 21.333-21.333v0-795.819c0-11.782-9.551-21.333-21.333-21.333v0z" />
<glyph unicode="&#xe920;" glyph-name="background-color" d="M481.87 822.156l332.11-332.11-307.582-307.582c-32.912-32.843-86.199-32.843-119.107-0.003l-272.558 272.558c-32.843 32.912-32.843 86.199-0.003 119.107l248.030 248.030c32.912 32.843 86.199 32.843 119.107 0.003l0.003-0.003zM753.64 490.046l-301.94 301.94c-16.239 16.205-42.531 16.205-58.769 0.002l-248.029-248.029c-16.205-16.239-16.205-42.531-0.002-58.769l272.587-272.587c16.239-16.205 42.531-16.205 58.769-0.002l0.002 0.002zM446.421 584.149c-0.011 0-0.025 0-0.038 0-5.882 0-11.207 2.38-15.066 6.23v0l-225.237 225.237c-3.859 3.86-6.246 9.193-6.246 15.083s2.387 11.222 6.246 15.083v0c3.86 3.859 9.193 6.246 15.083 6.246s11.222-2.387 15.083-6.246l225.237-225.195c3.872-3.862 6.268-9.203 6.268-15.104 0-11.782-9.551-21.333-21.333-21.333-0.013 0-0.027 0-0.040 0h0.002zM820.693 431.829c-0.037 0-0.080 0-0.124 0-5.839 0-11.13 2.346-14.983 6.147l-274.942 275.027c-3.859 3.86-6.246 9.193-6.246 15.083s2.387 11.222 6.246 15.083v0c3.86 3.859 9.193 6.246 15.083 6.246s11.222-2.387 15.083-6.246l275.072-274.901c3.872-3.862 6.268-9.203 6.268-15.104 0-11.782-9.551-21.333-21.333-21.333-0.013 0-0.027 0-0.040 0h0.002zM820.693 23.125c-64.819 0.073-117.346 52.6-117.419 117.412v0.007c0 52.523 68.992 135.083 98.645 168.149 4.623 5.199 11.31 8.475 18.763 8.533h0.010c7.449-0.066 14.12-3.341 18.708-8.507l0.023-0.026c29.867-33.109 98.688-115.669 98.688-168.192-0.097-64.801-52.614-117.303-117.412-117.376h-0.007zM820.693 265.301c-33.744-33.916-59.497-75.816-74.173-122.617l-0.579-2.141c0.049-41.265 33.487-74.703 74.747-74.752h0.005c41.265 0.049 74.703 33.487 74.752 74.747v0.005c-15.256 48.942-41.008 90.842-74.765 124.77l0.013-0.013z" />
<glyph unicode="&#xe921;" glyph-name="blog" d="M417.749 240.896c4.381 6.418 6.996 14.344 6.996 22.882 0 4.008-0.576 7.881-1.65 11.541l0.073-0.289c-3.164 11.344-11.324 20.317-21.895 24.531l-0.249 0.087c-5.506 2.261-11.897 3.573-18.595 3.573-6.237 0-12.209-1.138-17.718-3.218l0.345 0.114c-12.459-3.969-22.686-11.97-29.396-22.44l-0.129-0.216c-4.766-6.613-7.623-14.879-7.623-23.811 0-3.529 0.446-6.954 1.284-10.222l-0.062 0.284c2.932-11.296 10.795-20.321 21.095-24.783l0.239-0.092c5.822-2.724 12.641-4.314 19.832-4.314 6.059 0 11.855 1.129 17.188 3.187l-0.326-0.111c12.853 4.14 23.423 12.347 30.459 23.080l0.133 0.216zM464.043 300.629c1.572 2.315 2.51 5.171 2.51 8.247 0 1.722-0.294 3.376-0.835 4.913l0.032-0.104c-1.305 4.221-4.431 7.529-8.437 9.056l-0.096 0.032c-1.988 0.734-4.285 1.158-6.68 1.158-2.65 0-5.179-0.52-7.49-1.462l0.133 0.048c-4.602-1.644-8.302-4.86-10.531-8.986l-0.050-0.102q-8.533-15.275 6.4-22.144c2.026-0.735 4.364-1.16 6.802-1.16 2.696 0 5.271 0.52 7.629 1.465l-0.138-0.049c4.709 1.604 8.504 4.845 10.787 9.030l0.050 0.1zM549.717 247.808c-15.466-33.913-42.945-60.104-76.868-73.523l-0.956-0.333c-18.45-8.504-40.034-13.463-62.776-13.463-17.003 0-33.359 2.772-48.64 7.889l1.080-0.314c-32.689 9.093-58.812 31.862-72.25 61.593l-0.283 0.701c-5.818 12.612-9.212 27.367-9.212 42.916 0 18.096 4.596 35.118 12.685 49.963l-0.273-0.548c16.155 30.937 42.141 54.88 73.743 68.038l0.966 0.357c19.084 8.996 41.452 14.248 65.047 14.248 13.711 0 27.009-1.773 39.675-5.103l-1.084 0.242c33.974-7.536 61.828-29.112 77.648-58.184l0.304-0.611c7.555-13.926 11.996-30.49 11.996-48.092 0-16.685-3.991-32.438-11.069-46.357l0.269 0.582zM703.317 326.613c-3.652 33.634-19.81 62.925-43.657 83.575l-0.161 0.137c-28.295 25.074-62.863 43.727-101.029 53.319l-1.67 0.356c-28.681 7.889-61.615 12.423-95.607 12.423-13.936 0-27.693-0.762-41.234-2.247l1.672 0.149c-69.293-5.203-131.8-30.611-182.637-70.28l0.749 0.562c-39.692-26.773-65.448-71.573-65.448-122.388 0-2.77 0.077-5.521 0.228-8.253l-0.017 0.38c3.652-33.634 19.81-62.925 43.657-83.575l0.161-0.137c28.278-25.1 62.83-43.78 100.984-53.403l1.672-0.357c28.687-7.891 61.627-12.425 95.625-12.425 13.944 0 27.71 0.763 41.258 2.249l-1.673-0.149c69.32 5.172 131.86 30.569 182.724 70.238l-0.751-0.564c39.694 26.754 65.455 71.542 65.455 122.347 0 2.814-0.079 5.61-0.235 8.385l0.017-0.385zM854.997 324.651c-0.478-25.26-7.171-48.856-18.607-69.455l0.388 0.762c-14.308-26.233-32.222-48.542-53.409-67.226l-0.266-0.23c-24.198-21.768-51.428-40.981-80.773-56.768l-2.213-1.088c-32.032-17.062-69.172-31.065-108.215-40.099l-3.103-0.605c-39.386-9.709-84.603-15.278-131.121-15.278-0.733 0-1.465 0.001-2.197 0.004h0.113c-0.257 0-0.561-0.001-0.866-0.001-47.784 0-94.161 6.022-138.413 17.349l3.855-0.837c-44.865 10.959-84.298 26.642-120.807 46.947l2.45-1.251c-33.905 18.644-62.119 43.6-83.936 73.518l-0.502 0.722c-20.020 27.095-32.043 61.158-32.043 98.029 0 0.067 0 0.133 0 0.2v-0.010c1.356 44.598 13.856 86.003 34.792 121.883l-0.658-1.222c27.284 48.664 59.604 90.473 97.147 126.933l0.133 0.129c46.429 48.865 102.404 88.166 164.996 114.99l3.239 1.234q84.949 32.981 121.387-3.456 32-31.531 9.856-102.955c-0.692-1.655-1.094-3.577-1.094-5.594 0-1.52 0.228-2.986 0.653-4.367l-0.028 0.105c0.916-1.898 2.733-3.233 4.881-3.454l0.026-0.002c0.846-0.12 1.823-0.189 2.817-0.189 1.526 0 3.013 0.162 4.447 0.47l-0.138-0.025c2.61 0.503 4.844 1.108 7.011 1.856l-0.355-0.107 2.987 0.981c35.462 16.824 76.866 27.358 120.539 29.038l0.592 0.018c2.616 0.275 5.651 0.431 8.723 0.431 26.532 0 50.334-11.688 66.539-30.196l0.088-0.102c7.117-12.641 11.31-27.751 11.31-43.84s-4.193-31.199-11.545-44.296l0.235 0.456c-0.503-3.723-1.279-7.053-2.333-10.257l0.114 0.401c-0.186-0.51-0.293-1.1-0.293-1.714 0-1.872 0.997-3.512 2.489-4.417l0.023-0.013c1.703-1.433 3.64-2.674 5.728-3.645l0.16-0.067q2.475-1.024 8.533-2.987c19.337-6.053 36.143-13.906 51.634-23.656l-0.904 0.531c15.986-10.49 29.165-23.915 39.066-39.614l0.315-0.535c10.487-15.902 16.73-35.408 16.73-56.372 0-0.342-0.002-0.683-0.005-1.024v0.052zM818.56 631.851c13.164-14.53 22.616-32.66 26.714-52.738l0.123-0.723c1.574-6.953 2.476-14.938 2.476-23.133 0-12.44-2.078-24.394-5.905-35.534l0.23 0.769c-2.488-7.349-7.65-13.233-14.3-16.607l-0.164-0.075c-3.848-2.088-8.425-3.315-13.288-3.315-3.088 0-6.061 0.495-8.843 1.409l0.2-0.057c-7.379 2.498-13.283 7.693-16.65 14.384l-0.075 0.165c-2.088 3.848-3.315 8.425-3.315 13.288 0 3.088 0.495 6.061 1.409 8.843l-0.057-0.2c2.015 5.345 3.182 11.523 3.182 17.973 0 14.29-5.726 27.243-15.008 36.69l0.007-0.008c-9.748 11.391-24.139 18.564-40.206 18.564-4.432 0-8.737-0.546-12.851-1.574l0.364 0.077c-1.89-0.433-4.061-0.682-6.29-0.682-5.889 0-11.372 1.734-15.968 4.719l0.114-0.069c-6.501 3.891-11.080 10.423-12.27 18.075l-0.018 0.144c-0.442 1.884-0.695 4.048-0.695 6.27 0 5.826 1.74 11.246 4.729 15.767l-0.066-0.107c4.004 6.452 10.466 11.054 18.047 12.516l0.171 0.028c7.307 1.682 15.697 2.646 24.313 2.646 12.257 0 24.059-1.951 35.111-5.56l-0.799 0.226c19.875-6.282 36.7-17.458 49.646-32.137l0.103-0.119zM907.691 712.149c27.284-29.669 46.839-66.859 55.219-108.108l0.248-1.46c3.19-14.223 5.018-30.558 5.018-47.32 0-25.63-4.274-50.262-12.147-73.222l0.473 1.587c-2.788-8.664-8.776-15.624-16.539-19.625l-0.187-0.087c-4.338-2.388-9.507-3.793-15.005-3.793-3.799 0-7.441 0.671-10.814 1.901l0.219-0.070c-13.818 4.577-23.61 17.381-23.61 32.471 0 3.531 0.536 6.936 1.531 10.139l-0.065-0.242c5.354 15.31 8.446 32.96 8.446 51.332 0 11.862-1.289 23.423-3.735 34.551l0.196-1.062c-6.059 30.314-19.939 56.713-39.439 77.849l0.1-0.11c-19.14 21.56-43.785 37.827-71.742 46.626l-1.133 0.308c-15.185 4.973-32.662 7.841-50.808 7.841-12.226 0-24.147-1.302-35.633-3.774l1.108 0.2c-2.216-0.535-4.761-0.841-7.377-0.841-6.794 0-13.105 2.068-18.339 5.608l0.116-0.074c-7.51 4.752-12.894 12.286-14.726 21.121l-0.037 0.213c-0.543 2.209-0.854 4.745-0.854 7.353 0 6.733 2.074 12.982 5.618 18.142l-0.071-0.109c4.793 7.412 12.321 12.706 21.124 14.472l0.209 0.035c14.83 3.325 31.863 5.23 49.34 5.23 25.288 0 49.644-3.988 72.475-11.37l-1.666 0.466c40.899-12.869 75.532-35.817 102.192-65.978l0.208-0.24z" />
<glyph unicode="&#xe922;" glyph-name="border-angle" d="M935.296 677.291c-11.782 0-21.333 9.551-21.333 21.333v0 103.808c-0.024 28.102-22.799 50.877-50.899 50.901h-103.768c-11.782 0-21.333 9.551-21.333 21.333v0c0 11.782 9.551 21.333 21.333 21.333v0h103.765c51.608-0.169 93.399-41.96 93.568-93.552v-103.824c0-11.782-9.551-21.333-21.333-21.333v0zM608.213 853.333h-192.384c-11.782 0-21.333 9.551-21.333 21.333v0c0 11.782 9.551 21.333 21.333 21.333v0h192.384c11.782 0 21.333-9.551 21.333-21.333v0c0-11.782-9.551-21.333-21.333-21.333v0zM608.213 6.699h-192.384c-11.782 0-21.333 9.551-21.333 21.333v0c0 11.782 9.551 21.333 21.333 21.333v0h192.384c11.782 0 21.333-9.551 21.333-21.333v0c0-11.782-9.551-21.333-21.333-21.333v0zM264.747 6.699h-103.808c-51.608 0.169-93.399 41.96-93.568 93.552v103.824c0 11.782 9.551 21.333 21.333 21.333v0c11.782 0 21.333-9.551 21.333-21.333v0-103.808c0.024-28.102 22.799-50.877 50.899-50.901h103.81c11.782 0 21.333-9.551 21.333-21.333v0c0-11.782-9.551-21.333-21.333-21.333v0zM863.061 6.699h-103.765c-11.782 0-21.333 9.551-21.333 21.333v0c0 11.782 9.551 21.333 21.333 21.333v0h103.765c28.102 0.024 50.877 22.799 50.901 50.899v103.81c0 11.782 9.551 21.333 21.333 21.333v0c11.782 0 21.333-9.551 21.333-21.333v0-103.808c-0.169-51.608-41.96-93.399-93.552-93.568h-0.016zM88.704 677.291c-11.782 0-21.333 9.551-21.333 21.333v0 103.808c0.169 51.608 41.96 93.399 93.552 93.568h103.824c11.782 0 21.333-9.551 21.333-21.333v0c0-11.782-9.551-21.333-21.333-21.333v0h-103.808c-28.102-0.024-50.877-22.799-50.901-50.899v-103.81c0-11.782-9.551-21.333-21.333-21.333v0zM935.296 333.824c-11.782 0-21.333 9.551-21.333 21.333v0 192.384c0 11.782 9.551 21.333 21.333 21.333v0c11.782 0 21.333-9.551 21.333-21.333v0-192.384c0-11.782-9.551-21.333-21.333-21.333v0zM88.704 333.824c-11.782 0-21.333 9.551-21.333 21.333v0 192.384c0 11.782 9.551 21.333 21.333 21.333v0c11.782 0 21.333-9.551 21.333-21.333v0-192.384c0-11.782-9.551-21.333-21.333-21.333v0z" />
<glyph unicode="&#xe923;" glyph-name="border-radius" d="M931.797 677.291c-11.782 0-21.333 9.551-21.333 21.333v0c-0.097 85.39-69.28 154.588-154.655 154.709h-0.012c-11.782 0-21.333 9.551-21.333 21.333v0c0 11.782 9.551 21.333 21.333 21.333v0c108.941-0.146 197.212-88.432 197.333-197.364v-0.012c0-11.782-9.551-21.333-21.333-21.333v0zM261.333 6.699c-108.941 0.146-197.212 88.432-197.333 197.364v0.012c0 11.782 9.551 21.333 21.333 21.333v0c11.782 0 21.333-9.551 21.333-21.333v0c0.097-85.39 69.28-154.588 154.655-154.709h0.012c11.782 0 21.333-9.551 21.333-21.333v0c0-11.782-9.551-21.333-21.333-21.333v0zM755.925 6.699c-11.782 0-21.333 9.551-21.333 21.333v0c0 11.782 9.551 21.333 21.333 21.333v0c85.386 0.121 154.57 69.32 154.667 154.7v0.009c0 11.782 9.551 21.333 21.333 21.333v0c11.782 0 21.333-9.551 21.333-21.333v0c-0.121-108.944-88.393-197.23-197.319-197.376h-0.014zM85.333 677.291c-11.782 0-21.333 9.551-21.333 21.333v0c0.121 108.944 88.393 197.23 197.319 197.376h0.014c11.782 0 21.333-9.551 21.333-21.333v0c0-11.782-9.551-21.333-21.333-21.333v0c-85.386-0.121-154.57-69.32-154.667-154.7v-0.009c0-11.782-9.551-21.333-21.333-21.333v0z" />
<glyph unicode="&#xe924;" glyph-name="border" d="M931.925 677.291c-11.782 0-21.333 9.551-21.333 21.333v0 103.808c-0.024 28.102-22.799 50.877-50.899 50.901h-103.768c-11.782 0-21.333 9.551-21.333 21.333v0c0 11.782 9.551 21.333 21.333 21.333v0h103.765c51.608-0.169 93.399-41.96 93.568-93.552v-103.824c0-11.782-9.551-21.333-21.333-21.333v0zM604.843 853.333h-192.384c-11.782 0-21.333 9.551-21.333 21.333v0c0 11.782 9.551 21.333 21.333 21.333v0h192.384c11.782 0 21.333-9.551 21.333-21.333v0c0-11.782-9.551-21.333-21.333-21.333v0zM604.843 6.699h-192.384c-11.782 0-21.333 9.551-21.333 21.333v0c0 11.782 9.551 21.333 21.333 21.333v0h192.384c11.782 0 21.333-9.551 21.333-21.333v0c0-11.782-9.551-21.333-21.333-21.333v0zM261.376 6.699h-103.808c-51.608 0.169-93.399 41.96-93.568 93.552v103.824c0 11.782 9.551 21.333 21.333 21.333v0c11.782 0 21.333-9.551 21.333-21.333v0-103.808c0.024-28.102 22.799-50.877 50.899-50.901h103.81c11.782 0 21.333-9.551 21.333-21.333v0c0-11.782-9.551-21.333-21.333-21.333v0zM859.691 6.699h-103.765c-11.782 0-21.333 9.551-21.333 21.333v0c0 11.782 9.551 21.333 21.333 21.333v0h103.765c28.102 0.024 50.877 22.799 50.901 50.899v103.81c0 11.782 9.551 21.333 21.333 21.333v0c11.782 0 21.333-9.551 21.333-21.333v0-103.808c-0.169-51.608-41.96-93.399-93.552-93.568h-0.016zM85.333 677.291c-11.782 0-21.333 9.551-21.333 21.333v0 103.808c0.169 51.608 41.96 93.399 93.552 93.568h103.824c11.782 0 21.333-9.551 21.333-21.333v0c0-11.782-9.551-21.333-21.333-21.333v0h-103.808c-28.102-0.024-50.877-22.799-50.901-50.899v-103.81c0-11.782-9.551-21.333-21.333-21.333v0zM931.925 333.824c-11.782 0-21.333 9.551-21.333 21.333v0 192.384c0 11.782 9.551 21.333 21.333 21.333v0c11.782 0 21.333-9.551 21.333-21.333v0-192.384c0-11.782-9.551-21.333-21.333-21.333v0zM85.333 333.824c-11.782 0-21.333 9.551-21.333 21.333v0 192.384c0 11.782 9.551 21.333 21.333 21.333v0c11.782 0 21.333-9.551 21.333-21.333v0-192.384c0-11.782-9.551-21.333-21.333-21.333v0z" />
<glyph unicode="&#xe925;" glyph-name="bottom" d="M494.848 315.733c0 0.011 0 0.025 0 0.038 0 5.882 2.38 11.207 6.23 15.066v0l260.267 260.267c3.86 3.859 9.193 6.246 15.083 6.246s11.222-2.387 15.083-6.246v0c3.859-3.86 6.246-9.193 6.246-15.083s-2.387-11.222-6.246-15.083l-260.267-260.267c-3.858-3.847-9.182-6.225-15.061-6.225-11.766 0-21.306 9.524-21.333 21.284v0.003zM234.624 576c0 0.011 0 0.025 0 0.038 0 5.882 2.38 11.207 6.23 15.066v0c3.86 3.859 9.193 6.246 15.083 6.246s11.222-2.387 15.083-6.246l260.267-260.267c3.859-3.86 6.246-9.193 6.246-15.083s-2.387-11.222-6.246-15.083v0c-3.86-3.859-9.193-6.246-15.083-6.246s-11.222 2.387-15.083 6.246l-260.267 260.267c-3.848 3.858-6.228 9.181-6.229 15.061v0z" />
<glyph unicode="&#xe926;" glyph-name="brush" d="M423.637 869.333h176.768c0.429 0.015 0.932 0.023 1.438 0.023 24.377 0 44.246-19.305 45.152-43.46l0.002-0.083v-189.952h137.728c1.381 0.069 3 0.108 4.627 0.108 52.653 0 95.684-41.199 98.614-93.118l0.012-0.26v-515.925h-751.787v515.712c2.942 52.179 45.973 93.378 98.626 93.378 1.628 0 3.246-0.039 4.854-0.117l-0.227 0.009h137.728v189.952c0.796 24.331 20.71 43.752 45.161 43.752 0.458 0 0.915-0.007 1.369-0.020l-0.067 0.002zM604.288 825.344c-0.969 0.827-2.236 1.331-3.62 1.331-0.107 0-0.214-0.003-0.32-0.009l0.015 0.001h-176.768c-0.079 0.004-0.172 0.006-0.265 0.006-1.384 0-2.65-0.503-3.626-1.335l0.008 0.006v-232.149h-180.395c-1.348 0.115-2.917 0.18-4.501 0.18-29.163 0-53.153-22.149-56.066-50.543l-0.020-0.24v-473.259h666.581v473.045c-2.933 28.634-26.923 50.783-56.086 50.783-1.584 0-3.153-0.065-4.704-0.194l0.203 0.014h-180.395zM390.357 26.709c-11.782 0-21.333 9.551-21.333 21.333v0 120.832c0 11.782 9.551 21.333 21.333 21.333v0c11.782 0 21.333-9.551 21.333-21.333v0-120.832c0-11.782-9.551-21.333-21.333-21.333v0zM633.643 26.453c-11.782 0-21.333 9.551-21.333 21.333v0 213.333c0 11.782 9.551 21.333 21.333 21.333v0c11.782 0 21.333-9.551 21.333-21.333v0-213.333c0-11.782-9.551-21.333-21.333-21.333v0zM866.645 402.944h-709.248c-11.782 0-21.333 9.551-21.333 21.333v0c0 11.782 9.551 21.333 21.333 21.333v0h709.248c11.782 0 21.333-9.551 21.333-21.333v0c0-11.782-9.551-21.333-21.333-21.333v0z" />
<glyph unicode="&#xe927;" glyph-name="bulb-1" d="M512 895.872c179.819-0.194 325.541-145.901 325.76-325.696v-0.021c0-0.144 0-0.315 0-0.485 0-86.397-33.758-164.91-88.802-223.067l0.141 0.15-21.333-23.125c-40.57-40.745-65.704-96.887-65.877-158.9v-10.145c-0.097-85.263-69.19-154.356-154.444-154.453h-0.009c-85.263 0.097-154.356 69.19-154.453 154.444v6.75c0.191 3.475 0.299 7.542 0.299 11.635 0 62.692-25.512 119.426-66.72 160.386l-0.011 0.011-22.485 24.405-3.968 5.888c-45.959 56.030-73.817 128.44-73.817 207.357 0 19.81 1.755 39.21 5.119 58.053l-0.294-1.987c11.792 67.081 42.937 125.452 87.386 170.715l-0.047-0.048c44.151 45.763 101.697 78.332 166.316 91.388l2.047 0.345c19.579 4.024 42.1 6.352 65.157 6.4h0.038zM618.667 144.939l0.299 17.067c-0.005 0.609-0.008 1.328-0.008 2.048 0 73.009 29.107 139.22 76.35 187.661l-0.054-0.056 0.683 0.768 21.931 23.723c47.768 50.424 77.142 118.694 77.142 193.824 0 0.139 0 0.278 0 0.416v-0.022c-0.194 156.262-126.829 282.881-283.077 283.051h-0.016c-20.195-0.024-39.905-2.042-58.961-5.868l1.916 0.321c-57.804-11.645-107.694-39.91-145.881-79.531l-0.081-0.085c-38.563-39.239-65.615-89.906-75.615-146.46l-0.246-1.679c-2.847-15.035-4.476-32.33-4.476-50.006 0-68.625 24.547-131.516 65.341-180.373l-0.364 0.448 1.237-1.664 2.731-4.011 21.333-23.083c47.642-48.349 77.062-114.766 77.062-188.056 0-4.163-0.095-8.305-0.283-12.422l0.021 0.584v-6.741c0.073-61.709 50.078-111.714 111.78-111.787h0.007c58.186 0.071 105.969 44.518 111.326 101.312l0.034 0.448zM642.901 214.144h-276.608c-11.782 0-21.333 9.551-21.333 21.333v0c0 11.782 9.551 21.333 21.333 21.333v0h276.608c11.782 0 21.333-9.551 21.333-21.333v0c0-11.782-9.551-21.333-21.333-21.333v0zM125.611 813.867c-5.901 0.001-11.242 2.398-15.103 6.271l-0.001 0.001-37.845 37.803c-3.859 3.86-6.246 9.193-6.246 15.083s2.387 11.222 6.246 15.083v0c3.86 3.859 9.193 6.246 15.083 6.246s11.222-2.387 15.083-6.246l37.845-37.803c3.872-3.862 6.268-9.203 6.268-15.104 0-11.782-9.551-21.333-21.333-21.333-0.013 0-0.027 0-0.040 0h0.002zM898.432 813.867c-5.901 0.001-11.242 2.398-15.103 6.271l-0.001 0.001c-3.859 3.86-6.246 9.193-6.246 15.083s2.387 11.222 6.246 15.083l37.845 37.845c3.86 3.859 9.193 6.246 15.083 6.246s11.222-2.387 15.083-6.246v0c3.859-3.86 6.246-9.193 6.246-15.083s-2.387-11.222-6.246-15.083l-37.803-37.845c-3.862-3.874-9.203-6.271-15.104-6.272v0zM87.765 258.389c-5.901 0.001-11.242 2.398-15.103 6.271l-0.001 0.001c-3.859 3.86-6.246 9.193-6.246 15.083s2.387 11.222 6.246 15.083l37.845 37.845c3.86 3.859 9.193 6.246 15.083 6.246s11.222-2.387 15.083-6.246v0c3.859-3.86 6.246-9.193 6.246-15.083s-2.387-11.222-6.246-15.083l-37.803-37.845c-3.862-3.874-9.203-6.271-15.104-6.272v0zM936.277 258.389c-5.901 0.001-11.242 2.398-15.103 6.271l-0.001 0.001-37.845 37.803c-3.859 3.86-6.246 9.193-6.246 15.083s2.387 11.222 6.246 15.083v0c3.86 3.859 9.193 6.246 15.083 6.246s11.222-2.387 15.083-6.246l37.845-37.803c3.872-3.862 6.268-9.203 6.268-15.104 0-11.782-9.551-21.333-21.333-21.333-0.013 0-0.027 0-0.040 0h0.002z" />
<glyph unicode="&#xe928;" glyph-name="bulb" d="M512 895.872c179.819-0.194 325.541-145.901 325.76-325.696v-0.021c0-0.144 0-0.315 0-0.485 0-86.397-33.758-164.91-88.802-223.067l0.141 0.15-21.333-23.125c-40.57-40.745-65.704-96.887-65.877-158.9v-10.145c-0.097-85.263-69.19-154.356-154.444-154.453h-0.009c-85.263 0.097-154.356 69.19-154.453 154.444v6.75c0.191 3.475 0.299 7.542 0.299 11.635 0 62.692-25.512 119.426-66.72 160.386l-0.011 0.011-22.485 24.405-3.968 5.888c-45.959 56.030-73.817 128.44-73.817 207.357 0 19.81 1.755 39.21 5.119 58.053l-0.294-1.987c11.792 67.081 42.937 125.452 87.386 170.715l-0.047-0.048c44.151 45.763 101.697 78.332 166.316 91.388l2.047 0.345c19.579 4.024 42.1 6.352 65.157 6.4h0.038zM618.667 144.939l0.299 17.067c-0.005 0.609-0.008 1.328-0.008 2.048 0 73.009 29.107 139.22 76.35 187.661l-0.054-0.056 0.683 0.768 21.931 23.723c47.768 50.424 77.142 118.694 77.142 193.824 0 0.139 0 0.278 0 0.416v-0.022c-0.194 156.262-126.829 282.881-283.077 283.051h-0.016c-20.195-0.024-39.905-2.042-58.961-5.868l1.916 0.321c-57.804-11.645-107.694-39.91-145.881-79.531l-0.081-0.085c-38.563-39.239-65.615-89.906-75.615-146.46l-0.246-1.679c-2.847-15.035-4.476-32.33-4.476-50.006 0-68.625 24.547-131.516 65.341-180.373l-0.364 0.448 1.237-1.664 2.731-4.011 21.333-23.083c47.642-48.349 77.062-114.766 77.062-188.056 0-4.163-0.095-8.305-0.283-12.422l0.021 0.584v-6.741c0.073-61.709 50.078-111.714 111.78-111.787h0.007c58.186 0.071 105.969 44.518 111.326 101.312l0.034 0.448zM642.901 214.144h-276.608c-11.782 0-21.333 9.551-21.333 21.333v0c0 11.782 9.551 21.333 21.333 21.333v0h276.608c11.782 0 21.333-9.551 21.333-21.333v0c0-11.782-9.551-21.333-21.333-21.333v0z" />
<glyph unicode="&#xe929;" glyph-name="calendar-1" d="M835.797 1.92h-647.637c-32.229 0.567-60.626 16.478-78.267 40.719l-0.197 0.283c-18.662 24.87-29.885 56.256-29.885 90.262 0 0.817 0.006 1.633 0.019 2.448l-0.002-0.123v416.299h864.341v-416.299c-0.043-74.923-47.744-133.589-108.373-133.589zM944.171 594.517h-864.341v83.541c-0.011 0.692-0.018 1.507-0.018 2.325 0 34.006 11.222 65.391 30.166 90.654l-0.281-0.392c17.838 24.525 46.235 40.436 78.375 41.001l0.089 0.001h647.637c32.249-0.589 60.665-16.49 78.353-40.721l0.196-0.281c18.662-24.88 29.884-56.274 29.884-90.289 0-0.808-0.006-1.614-0.019-2.419l0.002 0.122v-83.499zM292.267 790.016c-11.782 0-21.333 9.551-21.333 21.333v0 61.44c0 11.782 9.551 21.333 21.333 21.333v0c11.782 0 21.333-9.551 21.333-21.333v0-61.44c0-11.782-9.551-21.333-21.333-21.333v0zM731.733 790.016c-11.782 0-21.333 9.551-21.333 21.333v0 61.44c0 11.782 9.551 21.333 21.333 21.333v0c11.782 0 21.333-9.551 21.333-21.333v0-61.44c0-11.782-9.551-21.333-21.333-21.333v0z" />
<glyph unicode="&#xe92a;" glyph-name="calendar" d="M835.797 1.877h-647.637c-32.227 0.574-60.622 16.483-78.268 40.719l-0.196 0.283c-18.662 24.875-29.884 56.265-29.884 90.276 0 0.813 0.006 1.624 0.019 2.433l-0.002-0.122v542.549c-0.011 0.687-0.018 1.499-0.018 2.311 0 34.011 11.222 65.401 30.166 90.668l-0.282-0.393c17.842 24.52 46.237 40.429 78.374 41.001l0.090 0.001h647.637c32.242-0.567 60.652-16.477 78.31-40.72l0.196-0.283c18.662-24.87 29.885-56.256 29.885-90.262 0-0.817-0.006-1.633-0.019-2.448l0.002 0.123v-542.549c-0.043-74.923-47.744-133.589-108.373-133.589zM188.16 768.939c-36.224 0-65.664-40.789-65.664-90.923v-542.549c0-50.133 29.44-90.923 65.664-90.923h647.637c36.181 0 65.664 40.789 65.707 90.923v542.549c0 50.133-29.483 90.923-65.707 90.923zM922.795 551.808h-821.632c-11.782 0-21.333 9.551-21.333 21.333v0c0 11.782 9.551 21.333 21.333 21.333v0h821.632c11.782 0 21.333-9.551 21.333-21.333v0c0-11.782-9.551-21.333-21.333-21.333v0zM292.267 790.016c-11.782 0-21.333 9.551-21.333 21.333v0 61.44c0 11.782 9.551 21.333 21.333 21.333v0c11.782 0 21.333-9.551 21.333-21.333v0-61.44c0-11.782-9.551-21.333-21.333-21.333v0zM731.733 790.016c-11.782 0-21.333 9.551-21.333 21.333v0 61.44c0 11.782 9.551 21.333 21.333 21.333v0c11.782 0 21.333-9.551 21.333-21.333v0-61.44c0-11.782-9.551-21.333-21.333-21.333v0z" />
<glyph unicode="&#xe92b;" glyph-name="captcha" d="M267.307 924.416h489.387c59.8-0.073 108.258-48.531 108.331-108.324v-738.14c-0.073-59.8-48.531-108.258-108.324-108.331h-489.394c-59.785 0.073-108.234 48.506-108.331 108.279v738.185c0.073 59.8 48.531 108.258 108.324 108.331h0.007zM756.693 12.245c36.246 0.049 65.615 29.418 65.664 65.659v738.181c-0.049 36.246-29.418 65.615-65.659 65.664h-489.392c-36.246-0.049-65.615-29.418-65.664-65.659v-738.138c0.049-36.246 29.418-65.615 65.659-65.664h0.005zM557.696 134.613h-91.392c-11.782 0-21.333 9.551-21.333 21.333v0c0 11.782 9.551 21.333 21.333 21.333v0h91.392c11.782 0 21.333-9.551 21.333-21.333v0c0-11.782-9.551-21.333-21.333-21.333v0zM697.088 704h-370.133c-11.782 0-21.333 9.551-21.333 21.333v0c0 11.782 9.551 21.333 21.333 21.333v0h370.133c11.782 0 21.333-9.551 21.333-21.333v0c0-11.782-9.551-21.333-21.333-21.333v0zM623.019 533.333h-296.064c-11.782 0-21.333 9.551-21.333 21.333v0c0 11.782 9.551 21.333 21.333 21.333v0h296.064c11.782 0 21.333-9.551 21.333-21.333v0c0-11.782-9.551-21.333-21.333-21.333v0zM440.277 362.667h-113.323c-11.782 0-21.333 9.551-21.333 21.333v0c0 11.782 9.551 21.333 21.333 21.333v0h113.323c11.782 0 21.333-9.551 21.333-21.333v0c0-11.782-9.551-21.333-21.333-21.333v0z" />
<glyph unicode="&#xe92c;" glyph-name="card-1" d="M883.413 85.419h-740.907c-58.91 0-106.667 47.756-106.667 106.667v0 313.387h954.24v-313.387c0-58.91-47.756-106.667-106.667-106.667v0zM211.2 355.925c-21.599-0.024-39.101-17.527-39.125-39.123v-61.357c0.024-21.599 17.527-39.101 39.123-39.125h72.92c21.599 0.024 39.101 17.527 39.125 39.123v61.357c-0.024 21.599-17.527 39.101-39.123 39.125h-0.002zM280.576 258.987h-65.877v54.315h65.877v-54.272zM990.037 548.181h-954.24v113.152c0 58.91 47.756 106.667 106.667 106.667v0h740.907c58.91 0 106.667-47.756 106.667-106.667v0-113.109z" />
<glyph unicode="&#xe92d;" glyph-name="card" d="M142.507 768h740.907c58.91 0 106.667-47.756 106.667-106.667v0-469.333c0-58.91-47.756-106.667-106.667-106.667v0h-740.907c-58.91 0-106.667 47.756-106.667 106.667v0 469.333c0 58.91 47.756 106.667 106.667 106.667v0zM883.413 128c35.346 0 64 28.654 64 64v0 469.333c0 35.346-28.654 64-64 64v0h-740.907c-35.346 0-64-28.654-64-64v0-469.333c0-35.346 28.654-64 64-64v0zM968.747 505.515h-913.451c-11.782 0-21.333 9.551-21.333 21.333v0c0 11.782 9.551 21.333 21.333 21.333v0h913.451c11.782 0 21.333-9.551 21.333-21.333v0c0-11.782-9.551-21.333-21.333-21.333v0zM211.2 355.968h72.917c21.599-0.024 39.101-17.527 39.125-39.123v-61.357c-0.024-21.599-17.527-39.101-39.123-39.125h-72.92c-21.599 0.024-39.101 17.527-39.125 39.123v61.357c0.024 21.599 17.527 39.101 39.123 39.125h0.002zM280.619 313.301h-65.877v-54.272h65.877z" />
<glyph unicode="&#xe92e;" glyph-name="chart-column-1" d="M694.016 42.752v787.029c0.903 42.613 35.66 76.811 78.405 76.811 0.471 0 0.941-0.004 1.41-0.012l-0.071 0.001h91.563c0.398 0.007 0.868 0.011 1.339 0.011 42.745 0 77.502-34.199 78.403-76.727l0.001-0.084v-787.029zM383.659 42.752v507.349c1.127 37.128 31.495 66.796 68.792 66.796 0.626 0 1.249-0.008 1.871-0.025l-0.092 0.002h109.995c0.517 0.014 1.125 0.022 1.735 0.022 37.288 0 67.645-29.673 68.748-66.694l0.002-0.102v-507.349zM73.301 42.752v227.669c1.817 29.159 25.91 52.119 55.366 52.119 0.951 0 1.896-0.024 2.836-0.071l-0.132 0.005h134.955c0.795 0.041 1.725 0.064 2.661 0.064 29.455 0 53.548-22.96 55.358-51.958l0.008-0.159v-227.669zM975.701 21.419h-933.035c-11.782 0-21.333 9.551-21.333 21.333v0c0 11.782 9.551 21.333 21.333 21.333v0h933.035c11.782 0 21.333-9.551 21.333-21.333v0c0-11.782-9.551-21.333-21.333-21.333v0z" />
<glyph unicode="&#xe92f;" glyph-name="chart-column" d="M773.803 896h91.563c38.141-0.024 69.053-30.937 69.077-69.075v-805.591h-229.717v805.589c0.024 38.141 30.937 69.053 69.075 69.077h0.002zM891.776 64v762.923c0 14.586-11.824 26.411-26.411 26.411h-91.563c-14.586 0-26.411-11.824-26.411-26.411v0-762.923zM454.101 606.208h110.123c0.038 0 0.083 0 0.128 0 32.99 0 59.733-26.744 59.733-59.733 0 0 0 0 0 0v0-524.8h-229.717v524.8c0 32.99 26.744 59.733 59.733 59.733v0zM581.419 64.085v482.389c0 9.426-7.641 17.067-17.067 17.067v0h-110.251c-9.426 0-17.067-7.641-17.067-17.067v0-482.133zM131.371 311.808h134.955c26.155-0.024 47.354-21.208 47.403-47.355v-243.205h-229.717v243.2c0.048 26.137 21.223 47.312 47.355 47.36h0.005zM271.061 64.085v200.363c0 0 0 0 0 0 0 2.592-2.101 4.693-4.693 4.693-0.015 0-0.030 0-0.045 0h-134.953c-2.592 0-4.693-2.101-4.693-4.693v0-200.533zM975.701 21.419h-933.035c-11.782 0-21.333 9.551-21.333 21.333v0c0 11.782 9.551 21.333 21.333 21.333v0h933.035c11.782 0 21.333-9.551 21.333-21.333v0c0-11.782-9.551-21.333-21.333-21.333v0z" />
<glyph unicode="&#xe930;" glyph-name="chart-column2-1" d="M776.533 10.795c-44.007 0.049-79.671 35.698-79.744 79.694v736.476c0.049 44.022 35.722 79.695 79.739 79.744h91.567c44.022-0.049 79.695-35.722 79.744-79.739v-736.474c-0.073-44.003-35.737-79.653-79.739-79.701h-0.005zM466.219 10.795c-44.017 0.024-79.695 35.688-79.744 79.697v455.898c0.049 38.908 31.577 70.437 70.481 70.485h110.042c38.908-0.049 70.437-31.577 70.485-70.481v-455.898c-0.049-43.998-35.703-79.653-79.697-79.701h-0.005zM155.861 10.795c-44.007 0.049-79.671 35.698-79.744 79.694v174.002c0.024 32.052 26.014 58.027 58.069 58.027h134.955c32.056 0 58.045-25.974 58.069-58.024v-173.997c-0.073-44.003-35.737-79.653-79.739-79.701h-0.005z" />
<glyph unicode="&#xe931;" glyph-name="chart-column2" d="M776.619 896h91.563c38.141-0.024 69.053-30.937 69.077-69.075v-736.429c0-0.013 0-0.028 0-0.043 0-38.159-30.922-69.096-69.075-69.12h-91.565c-38.156 0.024-69.077 30.961-69.077 69.12 0 0.015 0 0.030 0 0.045v-0.002 736.427c0.024 38.141 30.937 69.053 69.075 69.077h0.002zM868.181 64c14.553 0.024 26.344 11.815 26.368 26.366v736.557c0 0 0 0 0 0 0 14.571-11.8 26.386-26.366 26.411h-91.565c-14.586 0-26.411-11.824-26.411-26.411v0-736.427c0-0.025 0-0.055 0-0.085 0-14.586 11.824-26.411 26.411-26.411 0 0 0 0 0 0v0zM456.917 606.208h110.123c0.038 0 0.083 0 0.128 0 32.99 0 59.733-26.744 59.733-59.733 0 0 0 0 0 0v0-455.979c-0.024-38.141-30.937-69.053-69.075-69.077h-91.565c-38.141 0.024-69.053 30.937-69.077 69.075v455.981c0 32.99 26.744 59.733 59.733 59.733v0zM557.824 64.085c14.586 0 26.411 11.824 26.411 26.411v0 455.979c0 9.426-7.641 17.067-17.067 17.067h-110.251c-9.426 0-17.067-7.641-17.067-17.067v0-455.979c0-14.586 11.824-26.411 26.411-26.411v0zM134.187 311.851h134.955c26.155-0.024 47.354-21.208 47.403-47.355v-174c-0.049-38.122-30.952-69.010-69.075-69.035h-91.565c-38.126 0.024-69.029 30.912-69.077 69.030v174c0.048 26.137 21.223 47.312 47.355 47.36h0.005zM247.467 64.128c14.586 0 26.411 11.824 26.411 26.411v0 173.952c0 0 0 0 0 0 0 2.592-2.101 4.693-4.693 4.693-0.015 0-0.030 0-0.045 0h-134.953c-2.592 0-4.693-2.101-4.693-4.693v0-173.995c0-14.586 11.824-26.411 26.411-26.411v0z" />
<glyph unicode="&#xe932;" glyph-name="chart-combination" d="M972.203 75.179h-840.789c-55.723 0.073-100.877 45.226-100.949 100.942v615.346c0 11.782 9.551 21.333 21.333 21.333v0c11.782 0 21.333-9.551 21.333-21.333v0-615.339c0.049-32.169 26.114-58.234 58.278-58.283h840.794c11.782 0 21.333-9.551 21.333-21.333v0c0-11.782-9.551-21.333-21.333-21.333v0zM238.891 330.027c-0.011 0-0.025 0-0.038 0-5.882 0-11.207 2.38-15.066 6.23v0c-3.859 3.86-6.246 9.193-6.246 15.083s2.387 11.222 6.246 15.083l243.968 243.968c8.074 8.143 19.266 13.184 31.634 13.184 0.024 0 0.047 0 0.071 0h-0.004c0.029 0 0.064 0 0.099 0 12.385 0 23.594-5.040 31.685-13.182l109.271-109.271c0.416-0.412 0.989-0.667 1.621-0.667s1.205 0.255 1.622 0.667v0l305.323 305.365c3.86 3.859 9.193 6.246 15.083 6.246s11.222-2.387 15.083-6.246v0c3.859-3.86 6.246-9.193 6.246-15.083s-2.387-11.222-6.246-15.083l-305.365-305.408c-8.144-8.098-19.37-13.103-31.765-13.103s-23.621 5.005-31.767 13.105l-109.267 109.267c-0.404 0.421-0.972 0.683-1.601 0.683-0.007 0-0.014 0-0.021 0h0.001c-0.004 0-0.008 0-0.012 0-0.597 0-1.136-0.245-1.523-0.64v0l-244.011-244.011c-3.853-3.823-9.16-6.185-15.018-6.187v0zM972.203 778.112h-169.344c-11.782 0-21.333 9.551-21.333 21.333v0c0 11.782 9.551 21.333 21.333 21.333v0h169.344c11.782 0 21.333-9.551 21.333-21.333v0c0-11.782-9.551-21.333-21.333-21.333v0zM972.203 608.768c-11.782 0-21.333 9.551-21.333 21.333v0 169.344c0 11.782 9.551 21.333 21.333 21.333v0c11.782 0 21.333-9.551 21.333-21.333v0-169.344c0-11.782-9.551-21.333-21.333-21.333v0z" />
<glyph unicode="&#xe933;" glyph-name="chart-instrument" d="M512-26.965c-0.376-0.001-0.82-0.002-1.265-0.002-130.736 0-249.052 53.174-334.501 139.074l-0.020 0.021c-85.92 85.457-139.095 203.762-139.095 334.486 0 0.442 0.001 0.884 0.002 1.327v-0.069c-0.001 0.381-0.002 0.831-0.002 1.283 0 130.73 53.174 249.041 139.074 334.484l0.021 0.020c85.463 85.921 203.774 139.095 334.504 139.095 0.451 0 0.902-0.001 1.353-0.002h-0.070c11.782 0 21.333-9.551 21.333-21.333v0c0-11.782-9.551-21.333-21.333-21.333v0c-238.597-0.267-431.946-193.616-432.213-432.188v-0.026c0.291-238.579 193.631-431.904 432.188-432.171h0.026c11.782 0 21.333-9.551 21.333-21.333v0c0-11.782-9.551-21.333-21.333-21.333v0zM610.005-16.213c-10.157 0.009-18.652 7.114-20.794 16.625l-0.027 0.143c-0.341 1.429-0.537 3.069-0.537 4.755 0 10.173 7.121 18.683 16.65 20.818l0.142 0.027c13.184 2.901 26.368 6.485 39.211 10.624v0c12.8 4.267 25.6 8.96 38.016 14.293v0 0c2.489 1.102 5.392 1.743 8.445 1.743 8.726 0 16.228-5.239 19.533-12.742l0.054-0.137c1.102-2.489 1.743-5.392 1.743-8.445 0-8.726-5.239-16.228-12.742-19.533l-0.137-0.054h-0.427c-13.611-5.888-27.691-11.179-41.813-15.701h-0.213c-14.123-4.565-28.629-8.533-43.136-11.648-1.145-0.352-2.492-0.623-3.879-0.761l-0.089-0.007zM832.171 105.472c-5.901 0.001-11.242 2.398-15.103 6.271l-0.001 0.001c-3.859 3.86-6.246 9.193-6.246 15.083s2.387 11.222 6.246 15.083v0c9.557 9.515 18.773 19.627 27.435 29.867v0c8.533 10.411 17.067 21.333 24.491 32.469v0 0c3.893 5.667 10.338 9.336 17.64 9.336 4.487 0 8.65-1.385 12.085-3.751l-0.072 0.047c5.667-3.893 9.336-10.338 9.336-17.64 0-4.487-1.385-8.65-3.751-12.085l0.047 0.072c-8.533-12.245-17.408-24.235-26.88-35.669v0c-9.472-11.392-19.627-22.485-30.123-32.981-3.862-3.874-9.203-6.271-15.104-6.272v0zM954.624 327.339c-0.014 0-0.031 0-0.047 0-1.647 0-3.25 0.187-4.789 0.54l0.143-0.028c-9.631 2.192-16.712 10.683-16.712 20.827 0 1.693 0.197 3.339 0.57 4.918l-0.029-0.145c2.944 13.141 5.291 26.624 6.997 40.021v0.213c1.664 13.355 2.773 27.008 3.2 40.533v0.427c0.374 11.489 9.777 20.661 21.323 20.661 0.229 0 0.457-0.004 0.684-0.011l-0.033 0.001c11.489-0.374 20.661-9.777 20.661-21.323 0-0.229-0.004-0.457-0.011-0.684l0.001 0.033v-0.512c-0.469-14.848-1.664-29.867-3.499-44.501v-0.256c-1.877-14.72-4.267-29.525-7.68-43.989-2.115-9.694-10.605-16.853-20.774-16.896h-0.005zM938.965 580.181c-0.005 0-0.012 0-0.018 0-9.196 0-17.033 5.818-20.030 13.975l-0.048 0.148c-4.565 12.8-9.771 25.344-15.531 37.547v0c-5.76 12.203-12.16 24.277-19.029 35.925v0 0c-1.874 3.11-2.982 6.865-2.982 10.879 0 7.766 4.15 14.563 10.353 18.294l0.096 0.054c3.11 1.874 6.865 2.982 10.879 2.982 7.766 0 14.563-4.15 18.294-10.353l0.054-0.096v-0.213c7.552-12.8 14.592-26.069 20.907-39.467v-0.213c6.315-13.44 12.075-27.307 17.067-41.259 0.804-2.156 1.269-4.648 1.269-7.248 0-9.176-5.793-16.999-13.921-20.011l-0.148-0.048c-1.96-0.656-4.216-1.034-6.561-1.034-0.229 0-0.456 0.004-0.683 0.011l0.033-0.001zM790.059 784.981c-4.942 0.006-9.489 1.691-13.103 4.515l0.047-0.035c-10.667 8.277-21.845 16.171-33.237 23.424v0c-11.392 7.253-23.253 14.037-35.285 20.181v0 0c-6.973 3.605-11.656 10.762-11.656 19.012 0 3.525 0.855 6.85 2.368 9.779l-0.056-0.119c3.605 6.973 10.762 11.656 19.012 11.656 3.525 0 6.85-0.855 9.779-2.368l-0.119 0.056h0.427c13.184-6.741 26.24-14.208 38.784-22.144v0c12.501-7.979 24.789-16.597 36.48-25.6 5.017-3.941 8.21-10.007 8.21-16.819 0-4.936-1.676-9.481-4.491-13.095l0.036 0.048c-3.935-5.18-10.098-8.491-17.035-8.491-0.056 0-0.112 0-0.168 0.001h0.009zM554.624 878.251h-2.005c-13.397 1.237-27.093 1.877-40.619 1.877-11.782 0-21.333 9.551-21.333 21.333v0c0 11.782 9.551 21.333 21.333 21.333v0c14.848 0 29.867-0.683 44.587-2.048 10.89-1.056 19.334-10.161 19.334-21.239 0-0.694-0.033-1.38-0.098-2.057l0.007 0.086c-1.078-10.857-10.157-19.27-21.204-19.285h-0.002zM704.768 670.165v0c10.617-0.060 19.9-5.715 25.057-14.164l0.074-0.13c2.643-4.29 4.209-9.488 4.209-15.051 0-5.019-1.274-9.74-3.517-13.858l0.076 0.152-121.259-230.4c-19.38-37.198-57.232-62.397-101.065-63.443l-0.14-0.003c-0.014 0-0.030 0-0.046 0-9.219 0-18.155 1.214-26.656 3.492l0.718-0.164c-20.463 5.483-38.034 15.879-52.010 29.866l-0.001 0.001c-13.99 13.976-24.385 31.547-29.683 51.208l-0.184 0.802c-1.776 7.547-2.795 16.213-2.795 25.116 0 44.38 25.302 82.85 62.267 101.773l0.645 0.3 230.613 121.259c3.908 2.044 8.536 3.244 13.444 3.244 0.089 0 0.177 0 0.265-0.001h-0.014zM508.203 375.765c27.697 0.94 51.427 17.027 63.252 40.201l0.193 0.417 101.291 192.64-192.64-101.291c-23.979-11.822-40.185-36.094-40.185-64.15 0-5.128 0.541-10.13 1.57-14.952l-0.084 0.467c3.448-12.845 9.982-23.872 18.772-32.639l0.001-0.001c8.77-8.788 19.796-15.321 32.136-18.657l0.504-0.116c4.556-1.243 9.788-1.959 15.187-1.963h0.002zM448.811 793.259c-0.011 0-0.025 0-0.038 0-5.882 0-11.207 2.38-15.066 6.23v0c-3.859 3.86-6.246 9.193-6.246 15.083s2.387 11.222 6.246 15.083l86.997 86.997c3.86 3.859 9.193 6.246 15.083 6.246s11.222-2.387 15.083-6.246v0c3.859-3.86 6.246-9.193 6.246-15.083s-2.387-11.222-6.246-15.083l-86.955-86.997c-3.859-3.849-9.184-6.229-15.066-6.229-0.013 0-0.027 0-0.040 0h0.002z" />
<glyph unicode="&#xe934;" glyph-name="chart-line" d="M969.301 121.173h-739.371c-50.408 0.049-91.258 40.899-91.307 91.302v639.365c0 11.782 9.551 21.333 21.333 21.333v0c11.782 0 21.333-9.551 21.333-21.333v0-639.36c0.024-26.853 21.787-48.616 48.638-48.64h739.373c11.782 0 21.333-9.551 21.333-21.333v0c0-11.782-9.551-21.333-21.333-21.333v0zM969.344 121.131c-0.011 0-0.025 0-0.038 0-5.882 0-11.207 2.38-15.066 6.23v0l-105.301 105.301c-3.859 3.86-6.246 9.193-6.246 15.083s2.387 11.222 6.246 15.083v0c3.86 3.859 9.193 6.246 15.083 6.246s11.222-2.387 15.083-6.246l105.344-105.301c3.872-3.862 6.268-9.203 6.268-15.104 0-11.782-9.551-21.333-21.333-21.333-0.013 0-0.027 0-0.040 0h0.002zM864.043 15.829c-0.011 0-0.025 0-0.038 0-5.882 0-11.207 2.38-15.066 6.23v0c-3.859 3.86-6.246 9.193-6.246 15.083s2.387 11.222 6.246 15.083l105.344 105.344c3.86 3.859 9.193 6.246 15.083 6.246s11.222-2.387 15.083-6.246v0c3.859-3.86 6.246-9.193 6.246-15.083s-2.387-11.222-6.246-15.083l-105.301-105.344c-3.859-3.849-9.184-6.229-15.066-6.229-0.013 0-0.027 0-0.040 0h0.002zM54.656 732.245c-0.011 0-0.025 0-0.038 0-5.882 0-11.207 2.38-15.066 6.23v0c-3.859 3.86-6.246 9.193-6.246 15.083s2.387 11.222 6.246 15.083l105.344 105.344c3.86 3.859 9.193 6.246 15.083 6.246s11.222-2.387 15.083-6.246v0c3.859-3.86 6.246-9.193 6.246-15.083s-2.387-11.222-6.246-15.083l-105.301-105.344c-3.859-3.849-9.184-6.229-15.066-6.229-0.013 0-0.027 0-0.040 0h0.002zM265.259 732.245c-0.011 0-0.025 0-0.038 0-5.882 0-11.207 2.38-15.066 6.23v0l-105.301 105.301c-3.859 3.86-6.246 9.193-6.246 15.083s2.387 11.222 6.246 15.083v0c3.86 3.859 9.193 6.246 15.083 6.246s11.222-2.387 15.083-6.246l105.344-105.301c3.872-3.862 6.268-9.203 6.268-15.104 0-11.782-9.551-21.333-21.333-21.333-0.013 0-0.027 0-0.040 0h0.002zM303.531 285.44c-11.782 0-21.333 9.551-21.333 21.333v0c0 11.782 9.551 21.333 21.333 21.333v0c0.375-0.001 0.82-0.002 1.265-0.002 137.908 0 262.714 56.094 352.847 146.711l0.022 0.022c90.638 90.149 146.732 214.949 146.732 352.851 0 0.451-0.001 0.902-0.002 1.353v-0.070c0 11.782 9.551 21.333 21.333 21.333v0c11.782 0 21.333-9.551 21.333-21.333v0c0.001-0.435 0.002-0.949 0.002-1.464 0-149.653-60.873-285.088-159.21-382.895l-0.024-0.024c-97.823-98.31-233.224-159.149-382.835-159.149-0.515 0-1.029 0.001-1.543 0.002h0.080z" />
<glyph unicode="&#xe935;" glyph-name="chart-pie-1" d="M512-25.6c-0.287-0.001-0.626-0.001-0.966-0.001-122.965 0-234.949 47.015-318.957 124.050l0.349-0.316 324.565 324.523h467.883c-6.515-121.547-58.060-229.928-138.101-309.749l-0.011-0.011c-85.171-85.555-203.038-138.498-333.272-138.498-0.524 0-1.048 0.001-1.571 0.003h0.081zM162.133 128.512v0c-76.719 83.658-123.734 195.642-123.734 318.607 0 0.295 0 0.589 0.001 0.884v-0.046c-0.001 0.375-0.002 0.82-0.002 1.265 0 130.383 53.027 248.382 138.691 333.606l0.020 0.020c79.861 80.048 188.274 131.58 308.661 138.019l1.184 0.051v-467.797l-324.523-324.523zM985.088 465.579h-455.723v455.723c124.368-4.507 235.773-56.534 317.298-138.354l0.014-0.014c81.821-81.54 133.865-192.915 138.428-316.42l0.025-0.849z" />
<glyph unicode="&#xe936;" glyph-name="chart-pie" d="M512 921.6c0.003 0 0.006 0 0.010 0 261.562 0 473.6-212.038 473.6-473.6 0-130.783-53.011-249.185-138.719-334.89v0c-85.717-85.717-204.134-138.734-334.933-138.734-261.599 0-473.667 212.068-473.667 473.667 0 130.8 53.017 249.216 138.734 334.933v0c85.222 85.633 203.175 138.626 333.506 138.626 0.517 0 1.034-0.001 1.551-0.003h-0.080zM512 17.067c237.998 0 430.933 192.935 430.933 430.933s-192.935 430.933-430.933 430.933c-237.998 0-430.933-192.935-430.933-430.933v0c0.267-237.89 193.043-430.666 430.908-430.933h0.026zM964.267 426.88h-473.6v473.6c0 11.782 9.551 21.333 21.333 21.333v0c11.782 0 21.333-9.551 21.333-21.333v0-430.933h430.933c11.782 0 21.333-9.551 21.333-21.333v0c0-11.782-9.551-21.333-21.333-21.333v0zM192.213 106.667c-0.011 0-0.025 0-0.038 0-5.882 0-11.207 2.38-15.066 6.23v0c-3.859 3.86-6.246 9.193-6.246 15.083s2.387 11.222 6.246 15.083l320 320c3.86 3.859 9.193 6.246 15.083 6.246s11.222-2.387 15.083-6.246v0c3.859-3.86 6.246-9.193 6.246-15.083s-2.387-11.222-6.246-15.083l-320-320c-3.858-3.848-9.181-6.228-15.061-6.229v0z" />
<glyph unicode="&#xe937;" glyph-name="chart-table-1" d="M656.853-18.731h-500.309c-61.426 0.073-111.202 49.849-111.275 111.268v710.876c0.073 61.426 49.849 111.202 111.268 111.275h710.834c61.453-0.048 111.263-49.828 111.36-111.265v-710.836c-0.097-61.446-49.907-111.226-111.355-111.275h-0.005zM867.371 45.269c26.113 0.048 47.269 21.204 47.317 47.313v106.074h-225.835v-153.6zM624.853 45.269v153.6h-225.792v-153.6zM109.227 92.587c0.024-26.108 21.17-47.269 47.27-47.317h178.565v153.6h-225.835zM914.688 262.656v153.344h-225.835v-153.387zM624.853 262.656v153.344h-225.792v-153.387zM335.061 262.656v153.344h-225.835v-153.387zM914.688 480.256v153.088h-225.835v-153.344zM624.853 480.256v153.088h-225.792v-153.344zM335.061 480.256v153.088h-225.835v-153.344z" />
<glyph unicode="&#xe938;" glyph-name="chart-table" d="M156.587 904.064h710.827c55.558-0.073 100.578-45.092 100.651-100.644v-710.834c-0.073-55.558-45.092-100.578-100.644-100.651h-710.834c-55.558 0.073-100.578 45.092-100.651 100.644v710.834c0.073 55.558 45.092 100.578 100.644 100.651h0.007zM867.413 34.603c32.004 0.048 57.935 25.98 57.984 57.979v710.832c-0.048 32.004-25.98 57.935-57.979 57.984h-710.832c-32.004-0.048-57.935-25.98-57.984-57.979v-710.832c0.048-32.004 25.98-57.935 57.979-57.984h0.005zM946.731 209.323h-869.461c-11.782 0-21.333 9.551-21.333 21.333v0c0 11.782 9.551 21.333 21.333 21.333v0h869.461c11.782 0 21.333-9.551 21.333-21.333v0c0-11.782-9.551-21.333-21.333-21.333v0zM367.104-7.936c-11.782 0-21.333 9.551-21.333 21.333v0 644.267c0 11.782 9.551 21.333 21.333 21.333v0c11.782 0 21.333-9.551 21.333-21.333v0-644.267c0-11.782-9.551-21.333-21.333-21.333v0zM656.896-7.936c-11.782 0-21.333 9.551-21.333 21.333v0 644.267c0 11.782 9.551 21.333 21.333 21.333v0c11.782 0 21.333-9.551 21.333-21.333v0-644.267c0-11.782-9.551-21.333-21.333-21.333v0zM946.731 426.709h-869.461c-11.782 0-21.333 9.551-21.333 21.333v0c0 11.782 9.551 21.333 21.333 21.333v0h869.461c11.782 0 21.333-9.551 21.333-21.333v0c0-11.782-9.551-21.333-21.333-21.333v0zM946.731 644.053h-869.461c-11.782 0-21.333 9.551-21.333 21.333v0c0 11.782 9.551 21.333 21.333 21.333v0h869.461c11.782 0 21.333-9.551 21.333-21.333v0c0-11.782-9.551-21.333-21.333-21.333v0z" />
<glyph unicode="&#xe939;" glyph-name="classify-1" d="M146.603-32.469c-64.875 0.073-117.45 52.633-117.547 117.495v215.22c0.073 64.89 52.657 117.474 117.54 117.547h215.218c64.881-0.073 117.455-52.662 117.504-117.542v-215.258c-0.073-64.866-52.638-117.431-117.497-117.504h-0.007zM661.547 478.251c-64.86 0.073-117.425 52.608-117.547 117.45v215.265c0.073 64.89 52.657 117.474 117.54 117.547h215.218c64.881-0.073 117.455-52.662 117.504-117.542v-215.258c-0.073-64.866-52.638-117.431-117.497-117.504h-0.007zM146.603 478.251c-64.86 0.073-117.425 52.608-117.547 117.45v215.265c0.073 64.89 52.657 117.474 117.54 117.547h215.218c64.881-0.073 117.455-52.662 117.504-117.542v-215.258c-0.073-64.866-52.638-117.431-117.497-117.504h-0.007zM747.264 348.587c-72.554 0-131.371-58.817-131.371-131.371s58.817-131.371 131.371-131.371c72.554 0 131.371 58.817 131.371 131.371v0c-0.073 72.525-58.846 131.298-131.364 131.371h-0.007zM747.264 391.253c96.118 0 174.037-77.919 174.037-174.037s-77.919-174.037-174.037-174.037c-96.118 0-174.037 77.919-174.037 174.037v0c0 96.118 77.919 174.037 174.037 174.037v0zM942.379-21.803c-0.011 0-0.025 0-0.038 0-5.882 0-11.207 2.38-15.066 6.23v0l-87.296 87.296c-3.859 3.86-6.246 9.193-6.246 15.083s2.387 11.222 6.246 15.083v0c3.86 3.859 9.193 6.246 15.083 6.246s11.222-2.387 15.083-6.246l87.339-87.253c3.872-3.862 6.268-9.203 6.268-15.104 0-11.782-9.551-21.333-21.333-21.333-0.013 0-0.027 0-0.040 0h0.002z" />
<glyph unicode="&#xe93a;" glyph-name="classify" d="M146.389 917.845h215.424c58.915-0.072 106.668-47.765 106.837-106.65v-215.44c-0.169-58.842-47.825-106.497-106.651-106.667h-215.611c-58.842 0.169-106.497 47.825-106.667 106.651v215.44c0.169 58.842 47.825 106.497 106.651 106.667h0.016zM361.813 531.584c35.288 0.145 63.855 28.712 64 63.986v215.609c-0.145 35.288-28.712 63.855-63.986 64h-215.438c-35.288-0.145-63.855-28.712-64-63.986v-215.438c0.048-35.361 28.652-64.025 63.986-64.171h0.014zM661.333 917.845h215.424c58.915-0.072 106.668-47.765 106.837-106.65v-215.44c-0.169-58.842-47.825-106.497-106.651-106.667h-215.611c-58.842 0.169-106.497 47.825-106.667 106.651v215.44c0.169 58.842 47.825 106.497 106.651 106.667h0.016zM876.757 531.584c35.288 0.145 63.855 28.712 64 63.986v215.609c-0.145 35.288-28.712 63.855-63.986 64h-215.438c-35.288-0.145-63.855-28.712-64-63.986v-215.438c0.048-35.361 28.652-64.025 63.986-64.171h0.014zM146.389 407.125h215.424c58.915-0.072 106.668-47.765 106.837-106.65v-215.44c-0.169-58.842-47.825-106.497-106.651-106.667h-215.611c-58.842 0.169-106.497 47.825-106.667 106.651v215.44c0.169 58.842 47.825 106.497 106.651 106.667h0.016zM361.813 20.864c35.288 0.145 63.855 28.712 64 63.986v215.609c-0.145 35.288-28.712 63.855-63.986 64h-215.438c-35.288-0.145-63.855-28.712-64-63.986v-215.438c0.048-35.361 28.652-64.025 63.986-64.171h0.014zM747.264 348.587c-72.554 0-131.371-58.817-131.371-131.371s58.817-131.371 131.371-131.371c72.554 0 131.371 58.817 131.371 131.371v0c-0.073 72.525-58.846 131.298-131.364 131.371h-0.007zM747.264 391.253c96.118 0 174.037-77.919 174.037-174.037s-77.919-174.037-174.037-174.037c-96.118 0-174.037 77.919-174.037 174.037v0c0 96.118 77.919 174.037 174.037 174.037v0zM942.379-21.803c-0.011 0-0.025 0-0.038 0-5.882 0-11.207 2.38-15.066 6.23v0l-87.296 87.296c-3.859 3.86-6.246 9.193-6.246 15.083s2.387 11.222 6.246 15.083v0c3.86 3.859 9.193 6.246 15.083 6.246s11.222-2.387 15.083-6.246l87.339-87.253c3.872-3.862 6.268-9.203 6.268-15.104 0-11.782-9.551-21.333-21.333-21.333-0.013 0-0.027 0-0.040 0h0.002z" />
<glyph unicode="&#xe93b;" glyph-name="close-menu" d="M156.715 828.715c51.205 0 92.715-41.51 92.715-92.715s-41.51-92.715-92.715-92.715c-51.205 0-92.715 41.51-92.715 92.715v0c0.073 51.176 41.539 92.642 92.708 92.715h0.007zM156.715 685.909c27.641 0 50.048 22.407 50.048 50.048s-22.407 50.048-50.048 50.048c-27.626 0-50.024-22.383-50.048-50.003v-0.002c0.024-27.64 22.412-50.042 50.043-50.091h0.005zM156.715 540.715c51.205 0 92.715-41.51 92.715-92.715s-41.51-92.715-92.715-92.715c-51.205 0-92.715 41.51-92.715 92.715v0c0.073 51.176 41.539 92.642 92.708 92.715h0.007zM156.715 397.909c27.641 0 50.048 22.407 50.048 50.048s-22.407 50.048-50.048 50.048c-27.626 0-50.024-22.383-50.048-50.003v-0.002c0.024-27.64 22.412-50.042 50.043-50.091h0.005zM156.715 252.715c51.205 0 92.715-41.51 92.715-92.715s-41.51-92.715-92.715-92.715c-51.205 0-92.715 41.51-92.715 92.715v0c0.073 51.176 41.539 92.642 92.708 92.715h0.007zM156.715 109.909c27.641 0 50.048 22.407 50.048 50.048s-22.407 50.048-50.048 50.048c-27.626 0-50.024-22.383-50.048-50.003v-0.002c0.024-27.64 22.412-50.042 50.043-50.091h0.005zM938.709 714.667h-579.627c-11.782 0-21.333 9.551-21.333 21.333v0c0 11.782 9.551 21.333 21.333 21.333v0h579.627c11.782 0 21.333-9.551 21.333-21.333v0c0-11.782-9.551-21.333-21.333-21.333v0zM520.619 142.208h-161.579c-11.782 0-21.333 9.551-21.333 21.333v0c0 11.782 9.551 21.333 21.333 21.333v0h161.579c11.782 0 21.333-9.551 21.333-21.333v0c0-11.782-9.551-21.333-21.333-21.333v0zM520.619 426.667h-161.579c-11.782 0-21.333 9.551-21.333 21.333v0c0 11.782 9.551 21.333 21.333 21.333v0h161.579c11.782 0 21.333-9.551 21.333-21.333v0c0-11.782-9.551-21.333-21.333-21.333v0zM907.806 166.591l-248.6 248.6c-8.331 8.331-8.331 21.839 0 30.17v0c8.331 8.331 21.839 8.331 30.17 0v0l248.6-248.6c8.331-8.331 8.331-21.839 0-30.17v0c-8.331-8.331-21.839-8.331-30.17 0v0zM659.176 165.113c-8.331 8.331-8.331 21.839 0 30.17v0l248.6 248.6c8.331 8.331 21.839 8.331 30.17 0v0c8.331-8.331 8.331-21.839 0-30.17v0l-248.6-248.6c-8.331-8.331-21.839-8.331-30.17 0v0z" />
<glyph unicode="&#xe93c;" glyph-name="cloud-1" d="M266.667 139.691c-117.821 0-213.333 95.513-213.333 213.333v0c0 0.074 0 0.161 0 0.248 0 98.42 66.849 181.227 157.618 205.494l1.486 0.338c53.972 113.333 165.222 191.513 295.295 197.265l0.727 0.026h15.573c130.794-5.798 242.035-83.97 295.131-195.219l0.89-2.071c92.234-24.619 159.061-107.416 159.061-205.821 0-0.091 0-0.182 0-0.274v0.014c0-117.821-95.513-213.333-213.333-213.333v0z" />
<glyph unicode="&#xe93d;" glyph-name="cloud" d="M509.312 745.643h14.293c128.48-5.689 237.503-83.485 288.045-193.684l0.851-2.071c90.054-21.612 155.947-101.445 155.947-196.668 0-0.099 0-0.198 0-0.297v0.015c-0.146-111.824-90.758-202.436-202.568-202.581h-499.214c-111.815 0.146-202.417 90.763-202.539 202.57v0.012c0 0.084 0 0.183 0 0.282 0 95.223 65.893 175.055 154.569 196.388l1.377 0.28c51.393 112.269 160.416 190.066 288.19 195.73l0.706 0.025zM522.112 702.976h-12.075c-115.267-5.276-212.513-77.179-254.524-177.883l-0.708-1.914-4.267-10.923-11.648-2.048c-75.598-13.416-132.267-78.628-132.267-157.076 0-0.068 0-0.136 0-0.204v0.011c0.097-88.264 71.611-159.793 159.86-159.915h499.212c88.27 0.121 159.793 71.645 159.915 159.903v0.012c0 0.057 0 0.125 0 0.193 0 78.448-56.669 143.66-131.304 156.934l-0.963 0.142-11.648 2.048-4.267 10.923c-42.707 102.594-139.914 174.487-254.509 179.774l-0.638 0.023z" />
<glyph unicode="&#xe93e;" glyph-name="collapse-1" d="M837.12-37.547h-649.856c0 0 0 0 0 0-88.678 0-160.592 71.779-160.81 160.405v649.92c0.097 88.671 71.965 160.524 160.633 160.597h650.034c88.665-0.097 160.519-71.936 160.64-160.586v-649.91c-0.218-88.588-72.035-160.33-160.631-160.427h-0.009zM252.587 469.333c-11.782 0-21.333-9.551-21.333-21.333v0c0-11.782 9.551-21.333 21.333-21.333v0h238.379v-238.421c0-11.782 9.551-21.333 21.333-21.333v0c11.782 0 21.333 9.551 21.333 21.333v0 238.421h238.379c11.782 0 21.333 9.551 21.333 21.333v0c0 11.782-9.551 21.333-21.333 21.333v0h-238.379v238.379c0 11.782-9.551 21.333-21.333 21.333v0c-11.782 0-21.333-9.551-21.333-21.333v0-238.379z" />
<glyph unicode="&#xe93f;" glyph-name="collapse-up-1" d="M836.907-26.88h-649.771c-82.807 0.073-149.919 67.169-150.016 149.964v649.822c0.097 82.804 67.209 149.901 150.009 149.973h649.778c82.807-0.073 149.919-67.169 150.016-149.964v-649.822c-0.097-82.804-67.209-149.901-150.009-149.973h-0.007zM252.373 469.291c-11.782 0-21.333-9.551-21.333-21.333v0c0-11.782 9.551-21.333 21.333-21.333v0h519.467c11.782 0 21.333 9.551 21.333 21.333v0c0 11.782-9.551 21.333-21.333 21.333v0z" />
<glyph unicode="&#xe940;" glyph-name="collapse-up" d="M187.093 922.837h649.813c82.789-0.097 149.876-67.184 149.973-149.964v-649.822c-0.097-82.789-67.184-149.876-149.964-149.973h-649.823c-82.789 0.097-149.876 67.184-149.973 149.964v649.822c0.097 82.789 67.184 149.876 149.964 149.973h0.009zM836.907 15.744c59.244 0.049 107.258 48.062 107.307 107.302v649.818c-0.049 59.244-48.062 107.258-107.302 107.307h-649.818c-59.244-0.049-107.258-48.062-107.307-107.302v-649.818c0.049-59.244 48.062-107.258 107.302-107.307h0.005zM771.755 426.667h-519.467c-11.782 0-21.333 9.551-21.333 21.333v0c0 11.782 9.551 21.333 21.333 21.333v0h519.467c11.782 0 21.333-9.551 21.333-21.333v0c0-11.782-9.551-21.333-21.333-21.333v0z" />
<glyph unicode="&#xe941;" glyph-name="collapse" d="M187.093 922.837h649.813c82.789-0.097 149.876-67.184 149.973-149.964v-649.822c-0.097-82.789-67.184-149.876-149.964-149.973h-649.823c-82.789 0.097-149.876 67.184-149.973 149.964v649.822c0.097 82.789 67.184 149.876 149.964 149.973h0.009zM836.907 15.744c59.244 0.049 107.258 48.062 107.307 107.302v649.818c-0.049 59.244-48.062 107.258-107.302 107.307h-649.818c-59.244-0.049-107.258-48.062-107.307-107.302v-649.818c0.049-59.244 48.062-107.258 107.302-107.307h0.005zM771.755 426.667h-519.467c-11.782 0-21.333 9.551-21.333 21.333v0c0 11.782 9.551 21.333 21.333 21.333v0h519.467c11.782 0 21.333-9.551 21.333-21.333v0c0-11.782-9.551-21.333-21.333-21.333v0zM512 166.912c-11.782 0-21.333 9.551-21.333 21.333v0 519.467c0 11.782 9.551 21.333 21.333 21.333v0c11.782 0 21.333-9.551 21.333-21.333v0-519.467c0-11.782-9.551-21.333-21.333-21.333v0z" />
<glyph unicode="&#xe942;" glyph-name="configure" d="M123.904 851.925h776.107c56.124-0.073 101.602-45.551 101.675-101.668v-425.948c-0.073-56.124-45.551-101.602-101.668-101.675h-776.114c-56.109 0.073-101.578 45.526-101.675 101.623v425.993c0.073 56.124 45.551 101.602 101.668 101.675h0.007zM900.011 265.259c32.57 0.049 58.959 26.438 59.008 59.003v425.989c-0.049 32.57-26.438 58.959-59.003 59.008h-776.112c-32.57-0.049-58.959-26.438-59.008-59.003v-425.946c0.024-32.588 26.423-59.002 59.003-59.051h0.005zM507.861 44.075c-11.782 0-21.333 9.551-21.333 21.333v0 178.517c0 11.782 9.551 21.333 21.333 21.333v0c11.782 0 21.333-9.551 21.333-21.333v0-178.517c0-11.782-9.551-21.333-21.333-21.333v0zM670.976 44.117h-337.579c-11.782 0-21.333 9.551-21.333 21.333v0c0 11.782 9.551 21.333 21.333 21.333v0h337.579c11.782 0 21.333-9.551 21.333-21.333v0c0-11.782-9.551-21.333-21.333-21.333v0zM556.8 627.115h-304.683c-11.782 0-21.333 9.551-21.333 21.333v0c0 11.782 9.551 21.333 21.333 21.333v0h304.683c11.782 0 21.333-9.551 21.333-21.333v0c0-11.782-9.551-21.333-21.333-21.333v0zM771.797 627.115h-107.179c-11.782 0-21.333 9.551-21.333 21.333v0c0 11.782 9.551 21.333 21.333 21.333v0h107.179c11.782 0 21.333-9.551 21.333-21.333v0c0-11.782-9.551-21.333-21.333-21.333v0zM610.731 723.712c41.567 0 75.264-33.697 75.264-75.264s-33.697-75.264-75.264-75.264c-41.567 0-75.264 33.697-75.264 75.264v0c0.049 41.548 33.716 75.216 75.259 75.264h0.005zM610.731 615.851c18.003 0 32.597 14.594 32.597 32.597s-14.594 32.597-32.597 32.597c-18.003 0-32.597-14.594-32.597-32.597v0c0.024-17.993 14.604-32.573 32.595-32.597h0.002zM355.968 404.779h-103.851c-11.782 0-21.333 9.551-21.333 21.333v0c0 11.782 9.551 21.333 21.333 21.333v0h103.851c11.782 0 21.333-9.551 21.333-21.333v0c0-11.782-9.551-21.333-21.333-21.333v0zM771.797 404.779h-308.011c-11.782 0-21.333 9.551-21.333 21.333v0c0 11.782 9.551 21.333 21.333 21.333v0h308.011c11.782 0 21.333-9.551 21.333-21.333v0c0-11.782-9.551-21.333-21.333-21.333v0zM409.899 501.333c41.567 0 75.264-33.697 75.264-75.264s-33.697-75.264-75.264-75.264c-41.567 0-75.264 33.697-75.264 75.264v0c0.049 41.548 33.716 75.216 75.259 75.264h0.005zM409.899 393.472c18.003 0 32.597 14.594 32.597 32.597s-14.594 32.597-32.597 32.597c-18.003 0-32.597-14.594-32.597-32.597v0c0.024-17.993 14.604-32.573 32.595-32.597h0.002z" />
<glyph unicode="&#xe943;" glyph-name="control" d="M649.515 395.051h9.856c86.396-3.822 159.884-55.432 194.996-128.894l0.588-1.367c60.93-16.385 105.045-71.133 105.045-136.185 0-0.018 0-0.035 0-0.053v0.003c-0.194-77.684-63.116-140.606-140.781-140.8h-329.619c-77.684 0.194-140.606 63.116-140.8 140.781v0.019c0 0.012 0 0.025 0 0.039 0 65.067 44.136 119.825 104.103 135.97l0.985 0.226c35.693 74.817 109.162 126.423 195.058 130.244l0.483 0.017zM658.048 352.384h-7.467c-73.212-3.352-134.98-49.009-161.683-112.961l-0.45-1.215-4.267-10.923-11.648-2.048c-46.365-8.41-81.067-48.472-81.067-96.638 0-0.031 0-0.062 0-0.092v0.005c0.169-54.129 44.004-97.964 98.117-98.133h329.616c54.129 0.169 97.964 44.004 98.133 98.117v0.016c0 0.026 0 0.057 0 0.087 0 48.166-34.701 88.228-80.467 96.547l-0.599 0.090-11.605 2.048-4.267 10.923c-27.183 65.228-89.050 110.91-161.953 114.162l-0.393 0.014zM365.099 908.459h9.856c86.405-3.792 159.906-55.413 194.996-128.894l0.588-1.368c60.93-16.385 105.045-71.133 105.045-136.185 0-0.018 0-0.035 0-0.053v0.003c-0.194-77.684-63.116-140.606-140.781-140.8h-329.619c-77.684 0.194-140.606 63.116-140.8 140.781v0.019c0 0.012 0 0.025 0 0.039 0 65.067 44.136 119.825 104.103 135.97l0.985 0.226c35.677 74.848 109.179 126.469 195.106 130.245l0.478 0.017zM373.632 865.792h-7.637c-73.223-3.318-135.006-48.989-161.684-112.961l-0.449-1.215-4.267-10.923-11.648-2.048c-46.469-8.321-81.28-48.433-81.28-96.675 0-0.018 0-0.035 0-0.053v0.003c0.169-54.129 44.004-97.964 98.117-98.133h329.616c54.129 0.169 97.964 44.004 98.133 98.117v0.016c0 0.026 0 0.057 0 0.087 0 48.166-34.701 88.228-80.467 96.547l-0.599 0.090-11.605 2.048-4.267 10.923c-27.109 65.15-88.834 110.806-161.601 114.161l-0.404 0.015zM884.821 422.955c-11.782 0-21.333 9.551-21.333 21.333v0 280.149c-0.024 32.155-26.085 58.216-58.238 58.24h-254.808c-11.782 0-21.333 9.551-21.333 21.333v0c0 11.782 9.551 21.333 21.333 21.333v0h254.805c55.71-0.049 100.858-45.197 100.907-100.902v-280.154c0-11.782-9.551-21.333-21.333-21.333v0zM420.096 9.813h-189.568c-55.71 0.049-100.858 45.197-100.907 100.902v240.773c0 11.782 9.551 21.333 21.333 21.333v0c11.782 0 21.333-9.551 21.333-21.333v0-240.768c0.024-32.155 26.085-58.216 58.238-58.24h189.57c11.782 0 21.333-9.551 21.333-21.333v0c0-11.782-9.551-21.333-21.333-21.333v0z" />
<glyph unicode="&#xe944;" glyph-name="copy-1" d="M373.333 83.584c-38.254 1.308-68.768 32.634-68.768 71.086 0 0.749 0.012 1.495 0.035 2.238l-0.003-0.109v687.275c-0.020 0.635-0.032 1.382-0.032 2.131 0 38.461 30.509 69.796 68.647 71.124l0.121 0.003h326.784c19.506-0.186 37.004-8.633 49.189-22.005l0.048-0.054 162.645-177.451c12.123-13.382 19.542-31.22 19.542-50.792 0-0.144 0-0.287-0.001-0.43v0.022-509.781c0.020-0.635 0.032-1.382 0.032-2.131 0-38.437-30.49-69.754-68.604-71.081l-0.121-0.003zM710.4 721.749c0.049-20.732 16.854-37.522 37.587-37.547h140.205l-177.792 209.536zM691.584 513.536h-162.133c-42.113 0.049-76.239 34.175-76.288 76.283v189.274h42.667v-189.269c0.024-18.559 15.063-33.597 33.619-33.621h162.135zM165.888 783.445h317.653c19.858-0.165 37.67-8.784 50.039-22.428l0.051-0.057 158.123-172.544c12.282-13.561 19.799-31.638 19.799-51.469 0-0.16 0-0.321-0.001-0.481v0.025-495.701c0.015-0.547 0.023-1.192 0.023-1.838 0-39.152-31.020-71.059-69.824-72.484l-0.13-0.004h-475.776c-38.934 1.429-69.954 33.335-69.954 72.487 0 0.646 0.008 1.291 0.025 1.933l-0.002-0.095v668.331c-0.015 0.547-0.023 1.191-0.023 1.836 0 39.167 31.044 71.083 69.869 72.485l0.128 0.004zM641.664 9.173c15.364 1.352 27.325 14.158 27.325 29.758 0 0.669-0.022 1.332-0.065 1.99l0.005-0.089v495.701c0.001 0.111 0.002 0.243 0.002 0.375 0 8.716-3.235 16.677-8.569 22.747l0.033-0.039-158.123 172.544c-4.586 5.18-11.226 8.453-18.631 8.533h-317.667c-15.364-1.352-27.325-14.158-27.325-29.758 0-0.669 0.022-1.332 0.065-1.99l-0.005 0.089v-668.245c-0.039-0.568-0.061-1.232-0.061-1.9 0-15.6 11.96-28.407 27.211-29.75l0.113-0.008z" />
<glyph unicode="&#xe945;" glyph-name="copy" d="M384.64 912.555h315.733c19.761-0.194 37.485-8.754 49.828-22.303l0.049-0.054 157.227-171.563c12.253-13.455 19.756-31.423 19.756-51.143 0-0.185-0.001-0.37-0.002-0.555v0.028-492.843c0.018-0.609 0.029-1.324 0.029-2.043 0-38.961-30.937-70.697-69.586-71.981l-0.118-0.003h-472.917c-38.748 1.31-69.661 33.036-69.661 71.983 0 0.719 0.011 1.435 0.031 2.149l-0.002-0.105v664.363c-0.019 0.622-0.030 1.353-0.030 2.087 0 38.947 30.914 70.673 69.543 71.979l0.12 0.003zM857.771 142.763c15.213 1.284 27.074 13.949 27.074 29.384 0 0.695-0.024 1.385-0.071 2.068l0.005-0.092v492.843c0.001 0.074 0.001 0.161 0.001 0.249 0 8.674-3.236 16.593-8.566 22.614l0.031-0.036-157.227 171.563c-4.527 5.146-11.087 8.412-18.411 8.533h-315.754c-15.195-1.304-27.035-13.96-27.035-29.381 0-0.711 0.025-1.417 0.075-2.116l-0.005 0.094v-664.363c-0.044-0.604-0.069-1.308-0.069-2.018 0-15.413 11.844-28.059 26.927-29.334l0.108-0.007zM887.125 644.523h-140.032c-41.854 0.049-75.77 33.965-75.819 75.814v187.738h42.667v-187.733c0.024-18.3 14.852-33.128 33.15-33.152h140.034zM681.899-33.28h-473.131c-38.766 1.287-69.704 33.023-69.704 71.984 0 0.718 0.011 1.434 0.031 2.147l-0.002-0.105v664.363c-0.018 0.609-0.029 1.324-0.029 2.043 0 38.961 30.937 70.697 69.586 71.981l0.118 0.003h129.877v-42.667h-129.877c-15.213-1.284-27.074-13.949-27.074-29.384 0-0.695 0.024-1.385 0.071-2.068l-0.005 0.092v-664.363c-0.042-0.591-0.066-1.281-0.066-1.976 0-15.435 11.861-28.1 26.966-29.377l0.108-0.007h473.131c15.191 1.283 27.035 13.929 27.035 29.342 0 0.71-0.025 1.415-0.075 2.112l0.005-0.094v80.683h42.667v-80.683c0.018-0.609 0.029-1.325 0.029-2.044 0-38.946-30.913-70.672-69.541-71.979l-0.12-0.003z" />
<glyph unicode="&#xe946;" glyph-name="cover-1" d="M936.533 231.339l-154.027 80.085-234.88-122.112c-1.839-0.854-4.116-1.724-6.457-2.45l-0.413-0.11-7.893-4.267-2.261 1.067c-3.424-0.781-7.4-1.288-11.473-1.406l-0.090-0.002c-0.009 0-0.019 0-0.030 0-10.457 0-20.305 2.605-28.931 7.202l0.332-0.162-234.667 122.069-154.069-80.085c-9.746-5.052-16.29-15.063-16.29-26.603s6.545-21.551 16.124-26.524l0.166-0.078 403.712-209.877c4.011-2.137 8.771-3.392 13.824-3.392s9.813 1.255 13.986 3.47l-0.162-0.078 403.669 209.877c9.792 5.037 16.374 15.073 16.374 26.645 0 11.64-6.659 21.724-16.374 26.653l-0.17 0.078zM936.533 483.2l-134.741 70.059-236.416-122.965c-8.304-4.369-18.144-6.939-28.582-6.955h-0.005c-10.443 0.010-20.283 2.581-28.929 7.119l0.343-0.164-254.208 132.267-152.491-79.275c-9.769-5.045-16.332-15.068-16.332-26.624s6.563-21.579 16.166-26.546l0.167-0.078 403.712-209.877c4.015-2.117 8.774-3.359 13.824-3.359s9.809 1.242 13.989 3.438l-0.165-0.079 403.669 209.877c9.723 5.059 16.249 15.058 16.249 26.581s-6.526 21.522-16.083 26.503l-0.165 0.078zM134.101 658.005l390.144-199.381c3.989-2.109 8.719-3.347 13.739-3.347s9.75 1.238 13.902 3.426l-0.163-0.078 384.896 201.003c9.7 5.066 16.207 15.053 16.207 26.56s-6.507 21.494-16.043 26.482l-0.165 0.078-386.816 201.088c-4.011 2.137-8.771 3.392-13.824 3.392s-9.813-1.255-13.986-3.47l0.162 0.078-388.267-202.795c-9.595-5.098-16.018-15.030-16.018-26.462 0-11.516 6.518-21.511 16.067-26.494l0.165-0.078z" />
</font>
</defs>
</svg>
